<?xml version="1.0" standalone="no"?>
<!DOCTYPE svg PUBLIC "-//W3C//DTD SVG 1.1//EN" "http://www.w3.org/Graphics/SVG/1.1/DTD/svg11.dtd" >
<svg xmlns="http://www.w3.org/2000/svg">
<metadata>
Created by FontForge 20120731 at Tue Jan  3 15:46:13 2017
 By admin
</metadata>
<defs>
<font id="uf" horiz-adv-x="1024" >
  <font-face 
    font-family="uf"
    font-weight="500"
    font-stretch="normal"
    units-per-em="1024"
    panose-1="2 0 6 3 0 0 0 0 0 0"
    ascent="896"
    descent="-128"
    x-height="792"
    bbox="0 -124 1029 896"
    underline-thickness="0"
    underline-position="0"
    unicode-range="U+0078-E9CC"
  />
<missing-glyph 
 />
    <glyph glyph-name=".notdef" 
 />
    <glyph glyph-name=".notdef" 
 />
    <glyph glyph-name=".null" horiz-adv-x="0" 
 />
    <glyph glyph-name="nonmarkingreturn" horiz-adv-x="341" 
 />
    <glyph glyph-name="x" unicode="x" horiz-adv-x="1001" 
d="M281 543q-27 -1 -53 -1h-83q-18 0 -36.5 -6t-32.5 -18.5t-23 -32t-9 -45.5v-76h912v41q0 16 -0.5 30t-0.5 18q0 13 -5 29t-17 29.5t-31.5 22.5t-49.5 9h-133v-97h-438v97zM955 310v-52q0 -23 0.5 -52t0.5 -58t-10.5 -47.5t-26 -30t-33 -16t-31.5 -4.5q-14 -1 -29.5 -0.5
t-29.5 0.5h-32l-45 128h-439l-44 -128h-29h-34q-20 0 -45 1q-25 0 -41 9.5t-25.5 23t-13.5 29.5t-4 30v167h911zM163 247q-12 0 -21 -8.5t-9 -21.5t9 -21.5t21 -8.5q13 0 22 8.5t9 21.5t-9 21.5t-22 8.5zM316 123q-8 -26 -14 -48q-5 -19 -10.5 -37t-7.5 -25t-3 -15t1 -14.5
t9.5 -10.5t21.5 -4h37h67h81h80h64h36q23 0 34 12t2 38q-5 13 -9.5 30.5t-9.5 34.5q-5 19 -11 39h-368zM336 498v228q0 11 2.5 23t10 21.5t20.5 15.5t34 6h188q31 0 51.5 -14.5t20.5 -52.5v-227h-327z" />
    <glyph glyph-name="wechat" unicode="&#x3488;" horiz-adv-x="1000" 
d="M668 567q14 0 30 -2q-20 94 -109 155.5t-203 61.5q-128 0 -218.5 -76.5t-90.5 -185.5q0 -123 124 -209l-31 -93l108 54q78 -15 108 -15q13 0 29 1q-9 33 -9 65q0 101 76 172.5t186 71.5zM502 651q18 0 28.5 -10.5t10.5 -28t-10.5 -28t-28.5 -10.5t-32 11t-14 27.5
t14 27.5t32 11zM286 574q-18 0 -32.5 11t-14.5 27.5t14.5 27.5t32.5 11q17 0 27.5 -10.5t10.5 -28t-10.5 -28t-27.5 -10.5zM950 326q0 92 -78.5 158.5t-183.5 66.5q-110 0 -186.5 -66t-76.5 -159t76.5 -158.5t186.5 -65.5q31 0 92 16l85 -47l-23 77q108 82 108 178zM603 365
q-12 0 -21.5 9.5t-9.5 21.5t9.5 21.5t21.5 9.5q16 0 27 -9.5t11 -21.5t-11 -21.5t-27 -9.5zM773 365q-12 0 -21.5 9.5t-9.5 21.5t9.5 21.5t21.5 9.5q16 0 27 -9.5t11 -21.5t-11 -21.5t-27 -9.5z" />
    <glyph glyph-name="add-c-o" unicode="&#xe601;" 
d="M511.5 830q-90.5 0 -173 -35.5t-142 -95t-94.5 -142t-35 -172.5t35 -172.5t94.5 -142t142 -95t173 -35.5t173 35.5t142 95t94.5 142t35 172.5t-35 172.5t-94.5 142t-142 95t-173 35.5zM511.5 -4q-105.5 0 -195.5 52t-142 141.5t-52 195t52 195.5t142 142t195.5 52
t195 -52t142 -142t52.5 -195.5t-52.5 -195t-142 -141.5t-195 -52zM678 413h-139v139q0 11 -8 19.5t-19.5 8.5t-19.5 -8.5t-8 -19.5v-139h-139q-12 0 -20 -8.5t-8 -20t8 -19.5t20 -8h139v-139q0 -11 8 -19.5t19.5 -8.5t19.5 8.5t8 19.5v139h139q12 0 20 8t8 19.5t-8 20
t-20 8.5z" />
    <glyph glyph-name="search" unicode="&#xe603;" 
d="M886 97l-188 190q-1 1 -7 6q50 77 50 171q0 130 -91 222t-220 92t-220.5 -92t-91.5 -222.5t91.5 -222.5t220.5 -92q92 0 170 51q3 -5 5 -7l188 -190q20 -19 47 -19t46 19.5t19 47t-19 46.5zM430 249q-88 0 -150.5 63t-62.5 151.5t62.5 151.5t150.5 63t150.5 -63
t62.5 -151.5t-62.5 -151.5t-150.5 -63z" />
    <glyph glyph-name="histogram-arrow-up" unicode="&#xe633;" 
d="M528 264v-196q0 -5 4 -9t9 -4h99q6 0 10 4t4 9v262l-101 -87zM104 68q0 -5 3.5 -9t9.5 -4h99q6 0 10 4t4 9v200l-126 -104v-96zM316 339v-271q0 -5 3.5 -9t9.5 -4h99q6 0 10 4t4 9v269l-63 54zM740 68q0 -5 4 -9t9 -4h99q6 0 10 4t4 9v444l-126 -109v-335zM718 742
q-3 0 -4 -2.5t1 -5.5l95 -93l-257 -221l-174 149l-276 -228v-98l276 227l174 -148l310 267l78 -77q3 -2 5.5 -1t2.5 4v223q0 2 -1.5 3t-2.5 1h-227z" />
    <glyph glyph-name="close-bold" unicode="&#xe602;" 
d="M157 -44l-71 71q-15 15 -15 36t15 35l285 285l-285 285q-15 15 -15 35.5t15 35.5l71 71q15 15 35.5 15t35.5 -15l285 -285l285 285q14 15 35 15t36 -15l71 -71q15 -15 15 -35.5t-15 -35.5l-285 -285l285 -285q15 -14 15 -35t-15 -36l-71 -71q-15 -15 -36 -15t-35 15
l-285 285l-285 -285q-15 -15 -35.5 -15t-35.5 15z" />
    <glyph glyph-name="umbrella" unicode="&#xe63b;" 
d="M933 352l-5 7.5t-13 17t-20.5 22t-25 17t-28.5 7.5q-21 0 -46 -18.5t-39 -36.5l-14 -18q-6 8 -16 20t-35.5 32.5t-44.5 20.5q-40 0 -93 -66v-281q0 -42 -8.5 -71.5t-25.5 -48t-42 -27t-59 -8.5q-30 0 -54 9.5t-40 26.5q-17 17 -26 40q-8 24 -8 54v27h77q0 -59 9 -72
q14 -19 42 -19q6 0 14 1.5t12 2.5l5 2q14 10 19 18q2 3 4 10t3 12l1 5q2 23 2 36v287q-55 63 -93 63q-19 0 -45 -18t-42 -36l-17 -18q-6 8 -17 20t-36.5 32t-42.5 20t-40.5 -18t-38.5 -36l-15 -18q-1 8 -0.5 21.5t6 54t17 77.5t38.5 83.5t64.5 82t100 63.5t141.5 35l55 78
l53 -78q248 -15 332 -218q40 -99 35 -199v0z" />
    <glyph glyph-name="qq" unicode="&#xe694;" 
d="M204 428l-2 5l-1 7l-1 3v16l2 5l1 7l3 6l2 8l4 7l6 8v5v5l1 7l2 8l2 8l2 4l2 3l3 4l2 3v19l2 10l1 11l3 14l4 14l3 7l3 9l3 8l4 8l4 9l4 9l5 9l7 9l2 6l4 4l6 10l7 9l8 10l9 10l9 10l9 9l12 11l7 7l9 6l9 7l10 6l9 5l11 4l11 6l12 3l11 4l12 4l12 3l13 2l13 2l12 2l13 2
h14h40l13 -1l13 -2l14 -1l13 -3l13 -3l13 -4l14 -3l12 -5l12 -5l13 -5l12 -6l11 -7l12 -7l9 -7l5 -3l4 -3l9 -8l8 -7l7 -8l8 -8l6 -8l7 -9l5 -9l5 -8l6 -9l4 -8l8 -17l3 -9l3 -9l3 -9l3 -8l2 -7l2 -9l4 -15l3 -13l1 -13l2 -10l2 -16l1 -3l1 -3l5 -8l4 -5l3 -6l3 -6l3 -8
l2 -7l3 -8l1 -9l1 -4l1 -5v-5l-1 -4v-6l-1 -5l-3 -10l-2 -6l-2 -6v-1l1 -2l2 -4l12 -18l10 -13l4 -9l6 -9l5 -11l6 -11l6 -13l7 -14l4 -9l4 -8l3 -9l3 -8l2 -9l2 -8l3 -16l2 -16l2 -14v-20l-1 -7l-2 -12l-2 -11l-3 -10l-1 -4l-2 -5l-2 -3l-3 -5l-2 -2l-3 -4l-2 -2l-3 -3
l-3 -1l-3 -2h-3h-3h-3l-4 3l-4 3l-3 2l-2 2l-4 4l-5 7l-3 6l-4 5l-4 6l-5 10l-5 11l-1 1h-1l-2 -2l-1 -3l-3 -3l-4 -11l-5 -15l-8 -18l-5 -9l-6 -10l-7 -10l-8 -11l-3 -5l-5 -5l-10 -10l1 -1l1 -1l5 -3l22 -11l10 -5l9 -6l9 -6l8 -7l4 -3l3 -4l3 -4l2 -4l2 -4l1 -4l1 -4
l1 -5l-1 -3v-3l-1 -3l-1 -3l-1 -2l-2 -3l-4 -5l-3 -4l-3 -4l-2 -2l-7 -4l-6 -4l-8 -4l-7 -3l-9 -4l-5 -1l-4 -2l-10 -2l-11 -2l-10 -2l-12 -2l-11 -1l-12 -1h-38l-14 1l-12 1l-14 2l-13 1l-14 2l-14 3l-14 3l-13 4l-14 5l-13 4l-7 2l-6 2l-4 2l-4 1h-11l-13 1h-7l-8 1l-6 -5
l-7 -4l-10 -5l-11 -6l-7 -3l-7 -3l-15 -6l-9 -2l-8 -3l-13 -2l-7 -1h-8l-9 -1l-10 -1h-40l-22 1l-22 2l-12 1l-21 4l-10 2l-10 3l-10 2l-8 4l-9 3l-7 4l-7 4l-7 5l-2 2l-3 3l-2 2l-2 3l-2 3l-2 3l-2 6l-1 3l-1 4v3l1 4v3l1 4v8v3l2 5l2 4l2 6l2 2l2 2l4 5l3 3l4 2l2 2l5 2
l4 2l4 2l5 2l6 1l6 2h6l6 1l8 1l2 1v0h1v1l-1 2l-4 2l-10 8l-7 6l-7 6l-8 8l-8 9l-9 11l-4 6l-4 6l-4 7l-4 8l-4 7l-4 8l-3 8l-4 10l-3 8l-2 11l-1 1h-1v0h-1h-2v-1l-1 -2l-1 -2l-1 -2l-1 -3l-5 -8l-2 -5l-4 -4l-4 -5l-4 -6l-4 -5l-6 -5l-5 -4l-5 -4l-6 -4l-6 -2l-7 -2h-7
h-1h-2l-1 3l-2 1l-3 7l-1 3l-2 5l-1 5l-1 5l-2 11l-1 7v22l1 17l1 8l2 9l1 9l3 9l2 10l3 9l4 10l4 10l5 10l5 10l6 10l6 11l7 9l8 11l6 7l7 9l9 8l3 4l5 5l7 6l6 6l12 10l8 6z" />
    <glyph glyph-name="4square-3" unicode="&#xe63d;" 
d="M591 402h315q22 0 38 15.5t16 38.5v321q0 22 -16 37.5t-38 15.5h-315q-22 0 -38 -15.5t-16 -37.5v-321q0 -23 16 -38.5t38 -15.5zM575 777q0 6 4.5 11t11.5 5h315q7 0 11.5 -5t4.5 -11v-321q0 -7 -4.5 -11.5t-11.5 -4.5h-315q-7 0 -11.5 4.5t-4.5 11.5v321zM591 -63h315
q22 0 38 15.5t16 37.5v322q0 22 -16 37.5t-38 15.5h-315q-22 0 -38 -15.5t-16 -37.5v-322q0 -22 16 -37.5t38 -15.5zM119 -63h316q22 0 37.5 15.5t15.5 37.5v322q0 22 -15.5 37.5t-37.5 15.5h-316q-22 0 -37.5 -15.5t-15.5 -37.5v-322q0 -22 15.5 -37.5t37.5 -15.5zM103 312
q0 6 5 10.5t11 4.5h316q6 0 11 -4.5t5 -10.5v-322q0 -6 -5 -11t-11 -5h-316q-6 0 -11 5t-5 11v322zM119 403h316q22 0 37.5 15.5t15.5 37.5v322q0 22 -15.5 37.5t-37.5 15.5h-316q-22 0 -37.5 -15.5t-15.5 -37.5v-322q0 -22 15.5 -37.5t37.5 -15.5zM103 778q0 6 5 11t11 5
h316q6 0 11 -5t5 -11v-322q0 -6 -5 -10.5t-11 -4.5h-316q-6 0 -11 4.5t-5 10.5v322z" />
    <glyph glyph-name="send" unicode="&#xe63f;" 
d="M76 342l301 -94l371 325l-288 -350l322 -103l166 658zM450 -10l106 150l-106 31v-181z" />
    <glyph glyph-name="map" unicode="&#xe66c;" 
d="M677 -31q0 -3 2.5 -4.5t4.5 -0.5l228 109q1 0 2 1.5t1 2.5v722q0 3 -2.5 4t-4.5 0l-228 -114l-2 -2t-1 -2v-716v0zM386 70q0 -1 1 -2.5t3 -1.5l241 -89q2 -1 4.5 0.5t2.5 3.5v717q0 1 -1 2.5t-2 1.5l-242 102q-2 1 -4.5 -0.5t-2.5 -4.5v-729zM112 695q-1 0 -2 -1.5
t-1 -2.5v-722q0 -3 2 -4.5t5 -0.5l228 102q1 0 2 1.5t1 2.5v716q0 3 -2 4.5t-5 0.5z" />
    <glyph glyph-name="9square-2" unicode="&#xe63e;" 
d="M346 603q0 -15 -10.5 -25.5t-25.5 -10.5h-143q-15 0 -25.5 10.5t-10.5 25.5v143q0 14 10.5 24.5t25.5 10.5h143q15 0 25.5 -10.5t10.5 -24.5v-143zM619 746q0 14 -10.5 24.5t-25.5 10.5h-142q-15 0 -25.5 -10.5t-10.5 -24.5v-143q0 -15 10.5 -25.5t25.5 -10.5h142
q15 0 25.5 10.5t10.5 25.5v143zM891 746q0 14 -10.5 24.5t-25.5 10.5h-142q-15 0 -25.5 -10.5t-10.5 -24.5v-143q0 -15 10.5 -25.5t25.5 -10.5h142q15 0 25.5 10.5t10.5 25.5v143zM346 475q0 15 -10 25.5t-25 10.5h-143q-15 0 -25.5 -10.5t-10.5 -25.5v-142
q0 -15 10.5 -25.5t25.5 -10.5h143q15 0 25 10.5t10 25.5v142zM620 475q0 15 -10.5 25.5t-25.5 10.5h-143q-14 0 -24.5 -10.5t-10.5 -25.5v-142q0 -15 10.5 -25.5t24.5 -10.5h143q15 0 25.5 10.5t10.5 25.5v142zM346 202q0 14 -10 24.5t-25 10.5h-143q-15 0 -25.5 -10.5
t-10.5 -24.5v-143q0 -15 10.5 -25.5t25.5 -10.5h143q15 0 25 10.5t10 25.5v143zM620 202q0 14 -10.5 24.5t-25.5 10.5h-143q-14 0 -24.5 -10.5t-10.5 -24.5v-143q0 -15 10.5 -25.5t24.5 -10.5h143q15 0 25.5 10.5t10.5 25.5v143zM892 202q0 14 -10.5 24.5t-25.5 10.5h-143
q-15 0 -25 -10.5t-10 -24.5v-143q0 -15 10 -25.5t25 -10.5h143q15 0 25.5 10.5t10.5 25.5v143zM892 475q0 15 -10.5 25.5t-25.5 10.5h-143q-15 0 -25 -10.5t-10 -25.5v-142q0 -15 10 -25.5t25 -10.5h143q15 0 25.5 10.5t10.5 25.5v142zM845 343h-119v120h119v-120z" />
    <glyph glyph-name="navmenu" unicode="&#xe614;" 
d="M835 448h-646q-25 0 -43 -18.5t-18 -45.5t18 -45.5t43 -18.5h646q25 0 43 18.5t18 45.5t-18 45.5t-43 18.5zM835 704h-646q-25 0 -43 -18.5t-18 -45.5t18 -45.5t43 -18.5h646q25 0 43 18.5t18 45.5t-18 45.5t-43 18.5zM835 192h-646q-25 0 -43 -18.5t-18 -45.5t18 -45.5
t43 -18.5h646q25 0 43 18.5t18 45.5t-18 45.5t-43 18.5z" />
    <glyph glyph-name="pc-2" unicode="&#xe644;" 
d="M765 -15h-508v24q1 20 9.5 28.5t27.5 8.5h128h26v98h-25h-286q-72 1 -72 72q-1 229 0 495q0 35 18 54t53 19h753q71 0 71 -73v-495q0 -71 -72 -72h-284h-28q0 -72 1 -88q0 -2 6.5 -5.5t11.5 -4.5h121q36 0 45.5 -11.5t3.5 -49.5zM896 273v447q-23 2 -24 2h-721
q-15 0 -20 -5.5t-5 -19.5q1 -71 1 -401v-23h769zM544 207.5q0 13.5 -9.5 23t-23.5 9.5q-12 -1 -21.5 -10.5t-9.5 -22t9.5 -22t21.5 -10.5q14 0 23.5 9.5t9.5 23z" />
    <glyph glyph-name="search-light-2" unicode="&#xe627;" 
d="M887 80l-161 161q74 98 65 223.5t-98 214.5q-64 65 -151 88t-173.5 0t-151.5 -88t-88 -151.5t0 -173.5t88 -151q94 -94 227 -98.5t232 81.5l158 -159q11 -11 26.5 -11t26.5 11t11 26.5t-11 26.5zM270.5 255.5q-76.5 76.5 -76.5 185t76.5 185t185 76.5t185.5 -77
q73 -73 76 -177t-65 -181q-2 -1 -3 -2q-2 -2 -4 -5q-2 -2 -4 -5q-77 -76 -185.5 -76t-185 76.5z" />
    <glyph glyph-name="check-s-2" unicode="&#xe66e;" 
d="M860 719h-94v-154h-510v154h-92q-14 0 -24.5 -10t-10.5 -25v-714q0 -15 10.5 -25t24.5 -10h696q14 0 24 10t10 25v714q0 15 -10 25t-24 10zM782 421l-301 -369q1 -4 -3 -4.5t-7 2.5l-220 180q-8 7 -1 15l36 45q7 8 16 1l166 -137l258 315q6 11 15 4l43 -35q8 -6 -2 -17z
M643 764v28q0 22 -15.5 37t-36.5 15h-158q-21 0 -36.5 -15t-15.5 -37v-28h-61v-140h383v140h-60zM512 675q-24 0 -40.5 17t-16.5 40.5t16.5 40.5t40.5 17t40.5 -17t16.5 -40q0 -27 -16 -42.5t-41 -15.5z" />
    <glyph glyph-name="pencil" unicode="&#xe69b;" 
d="M173 45l174 54l402 403l-119 119l-403 -402zM720 711l-50 -50l119 -119l50 50q12 12 12 29.5t-12 29.5l-60 60q-12 12 -29.5 12t-29.5 -12z" />
    <glyph glyph-name="repeat" unicode="&#xe634;" 
d="M564 765v-162q-50 0 -96 -7t-97 -26t-94.5 -49.5t-83.5 -80t-68 -114.5t-44.5 -156.5t-16.5 -202.5q14 51 29 92.5t32.5 75.5t35 60.5t40 47t43.5 35t50.5 24.5t56 16t63.5 9.5t70 4.5t80 1v-165q0 -21 18 -29q6 -3 12 -3q14 0 23 10l334 300q9 9 9 22t-9 22l-334 298
q-15 15 -35 7q-18 -8 -18 -30z" />
    <glyph glyph-name="security-2" unicode="&#xe6a5;" 
d="M923 756v-457q0 -41 -20.5 -81.5t-54 -78.5t-76 -72.5t-86.5 -60.5q-44 -27 -85.5 -44.5t-72.5 -24.5l-10 -1l-9 1q-32 7 -74 24.5t-88 44t-90 61t-78.5 72.5t-55.5 78.5t-21 81.5v457l33 5l378 71l385 -71zM513 766h-4l-325 -55v-288h329v343zM840 423h-327v-410
q32 7 69 22t73 35.5t69.5 45t59 53t41 59.5t15.5 62v133z" />
    <glyph glyph-name="lexi" unicode="&#xe643;" 
d="M835 164q4 -13 7 -32.5t3 -39.5t-3 -37.5t-9 -25.5q-4 -6 -23.5 -13t-48.5 -12.5t-64 -11t-70.5 -10t-68 -7t-56.5 -2.5q-36 0 -86 5t-97.5 13t-83.5 15.5t-43 13.5q-9 7 -13.5 41t3.5 87q5 31 25.5 47t47 25.5t55.5 16.5t51 21q15 10 24 19t13.5 18t5.5 18.5t0 20.5
l-72 11q-15 10 -27 30q-10 18 -18 48.5t-8 78.5q0 41 4 86.5t20.5 86.5t48.5 74t87 49q32 11 64 11q9 1 17.5 1.5t17.5 0.5q41 0 73.5 -17t56.5 -44t40.5 -61t26.5 -68.5t14 -66.5t2 -55q-2 -35 -10.5 -62.5t-18.5 -47.5q-10 -24 -24 -42l-83 -13q-1 -23 10.5 -45t51.5 -39
q20 -8 45 -14.5t48 -15t41 -21.5t24 -35v0zM835 164z" />
    <glyph glyph-name="pencil-s" unicode="&#xe77d;" 
d="M267 131l188 81l-115 114zM827 576l-119 123l-347 -342l124 -129zM926 723q-32 35 -69 62q-16 12 -32 12t-24 -6l-8 -6l-62 -62l126 -124q52 53 69 71q7 8 7 21.5t-4 22.5zM792 67q0 -7 -4.5 -11.5t-10.5 -4.5h-584q-6 0 -10.5 4.5t-4.5 11.5v578q0 7 4.5 11.5t10.5 4.5
h371l77 82h-527q-8 0 -13.5 -5.5t-5.5 -13.5v-736q0 -8 5.5 -13.5t13.5 -5.5h742q8 0 13.5 5.5t5.5 13.5v526l-83 -77v-370z" />
    <glyph glyph-name="del" unicode="&#xe654;" 
d="M480 612h64v-549h-64v549zM329 612h64v-549h-64v549zM631 612h64v-549h-64v549zM896 737h-172v41q0 23 -18.5 39t-45.5 16h-296q-27 0 -45.5 -16t-18.5 -39v-41h-177v-64h67v-675q0 -25 19 -43.5t45 -18.5h516q26 0 45 18.5t19 43.5v675h62v64v0zM364 769h296v-32h-296
v32zM771 0h-1l-516 -2v675h516l1 -673v0z" />
    <glyph glyph-name="bi-o" unicode="&#xe641;" 
d="M503 804q-57 0 -139 -17t-148.5 -34t-87.5 -17v-461q3 -22 10.5 -46t32.5 -62.5t63 -71.5t108 -67t161 -57q91 23 161 57t107.5 67t62.5 71.5t32.5 62.5t10.5 46v461q-20 0 -87 17t-148.5 34t-138.5 17v0zM832 289q-3 -20 -9.5 -41t-28.5 -54.5t-55 -62.5t-94.5 -59.5
t-141.5 -49.5q-80 19 -141.5 49.5t-95 59.5t-55.5 62.5t-28.5 54.5t-9.5 41v404q19 0 77.5 15t130.5 30t122 15t122 -15t130.5 -30t76.5 -15v-404zM307 197v420h60v-114h103v-41h-103v-190q45 11 101 38v-45q-75 -42 -161 -68zM567 203q-69 -2 -67 69v351h60v-130
q62 8 92 66h60q-38 -94 -152 -103v-182q0 -34 34 -34h35q34 0 34 32v25h47v-32q0 -62 -68 -62h-75z" />
    <glyph glyph-name="pencil-c" unicode="&#xe6e6;" 
d="M519.5 859q-95.5 0 -182.5 -37t-149.5 -99.5t-99.5 -149.5t-37 -182.5t37 -182.5t99.5 -150t149.5 -100t182.5 -37t182.5 37t150 100t100 150t37 182.5t-37 182.5t-100 149.5t-150 99.5t-182.5 37zM426 375l212 209l73 -76l-209 -212l-76 79v0zM484 286l-116 -50l45 119z
M741 148v0q0 -4 -3.5 -7.5t-8.5 -3.5h-454q-5 0 -8.5 3.5t-3.5 7.5v451q0 5 3.5 8.5t8.5 3.5h323l-47 -50h-228q-9 0 -9 -10v-354q0 -10 9 -10h358q9 0 9 10v227l51 47v-323zM772 566l-42 -44l-77 77l38 37q17 17 39 0q10 -7 20.5 -16.5t15.5 -14.5l6 -6q1 -3 2 -6.5t2 -13
t-4 -13.5z" />
    <glyph glyph-name="qrcode" unicode="&#xe661;" 
d="M190 706h70v-70h-70v70zM386 832h-322v-322h126v-56h70v56h126v70h56v56h-56v196zM316 580h-182v182h182v-182zM190 132h70v-70h-70v70zM764 706h70v-70h-70v70zM512 390v-76h70v70h56v70h-56v56h-70v-56v-64zM512 134v-72h70v126h56v70h-126v-60v-64zM582 62h56v-56h-56
v56zM442 6v-70h140v70h-66h-74zM708 188h-70v-126h126v70h-56v56zM764 -64h196v70h-126v56h-70v-56v-70zM960 384v70h-126v-70h66h60zM890 132h70v-70h-70v70zM442 580h70v-70h-70v70zM764 454v56h196v322h-322v-70h-126v-56h126v-70h-56v-56h56v-70h70v-56h56zM708 762h182
v-182h-182v182zM708 314h56v-56h-56v56zM834 188h-70v-56h126v126h70v56h-126v-52v-74zM442 706h70v-70h-70v70zM260 384h56v-70h-56v70zM442 454h-126v-70h70v-70h56v76v64zM386 62v126h56v70h-252v126h-126v-70h70v-56h-70v-322h322v70h56v56h-56zM316 6h-182v182h182
v-182zM442 314h70v-56h-70v56zM638 384h70v-70h-70v70zM764 384h70v-70h-70v70z" />
    <glyph glyph-name="rmb-c-o" unicode="&#xe645;" 
d="M511 832q-91 0 -174 -35.5t-143 -95t-95.5 -142.5t-35.5 -174t35.5 -174t95.5 -143t143 -95.5t174 -35.5t174 35.5t142.5 95.5t95 143t35.5 174t-35.5 174t-95 142.5t-142.5 95t-174 35.5zM511 2q-104 0 -192.5 51t-139.5 139.5t-51 192.5t51 192t139.5 139.5t192.5 51.5
t192 -51.5t139.5 -139.5t51.5 -192t-51.5 -192.5t-139.5 -139.5t-192 -51zM702 576l-140 -174h140v-45h-158v-63h158v-46h-158v-80h-67v80h-158v46h158v63h-158v45h139l-139 174h75l118 -163h1q2 5 32 46t58.5 79l28.5 38h70z" />
    <glyph glyph-name="search-c-o" unicode="&#xe659;" 
d="M505.5 818q-114.5 0 -212 -56.5t-154 -154t-56.5 -212t56.5 -211.5t154 -153.5t212 -56.5t211.5 56.5t153.5 153.5t56.5 211.5t-56.5 212t-153.5 154t-211.5 56.5zM505 30q-99 0 -183 49t-133 133.5t-49 183.5t49 183.5t133 133t183 48.5t183.5 -48.5t133.5 -133
t49 -183.5t-49 -183.5t-133.5 -133.5t-183.5 -49zM613 327q32 44 32 98q0 69 -49.5 118.5t-119 49.5t-119 -49.5t-49.5 -119t49.5 -119t119.5 -49.5q53 0 97 31l79 -80q8 -8 20 -8t20 8t8 20t-8 20zM476.5 312q-46.5 0 -79.5 33t-33 79.5t33 79.5t79.5 33t79.5 -33t33 -79.5
t-33 -79.5t-79.5 -33z" />
    <glyph glyph-name="bell" unicode="&#xe60c;" 
d="M645 77h-278q-7 0 3 -16t31 -36q20 -19 48 -35q27 -16 59 -16h1h1.5h1h1.5q31 0 59 16q28 17 48 35q21 20 30 36q10 16 4 16h-9zM913 167v0q-19 27 -44 66q-24 38 -47 85q-22 47 -37 98q-16 52 -16 106q0 52 -14 95q-14 42 -38 75q-23 33 -55 56q-32 22 -68 34
q-38 11 -82 11h-0.5h-1.5v0h-0.5h-1.5q-44 0 -82 -11q-35 -12 -67 -34.5t-55 -55.5q-24 -33 -38 -75.5t-14 -94.5q0 -54 -16 -106q-16 -51 -37 -98q-23 -47 -47 -85q-25 -38 -44 -66v0q-8 -9 -7.5 -18t5 -15.5t10.5 -10.5v0q2 -1 8 -3q1 0 2.5 -0.5t2.5 -0.5h763
q1 0 2.5 0.5t2.5 0.5q6 2 7 3h1q6 4 10 10.5t4.5 15.5t-6.5 18v0zM913 167z" />
    <glyph glyph-name="pass-3" unicode="&#xe649;" 
d="M790 832h-560q-46 0 -79 -32.5t-33 -79.5v-504q0 -46 33 -78.5t79 -32.5h560q46 0 79 32.5t33 78.5v504q0 47 -33 79.5t-79 32.5zM741 563l-233 -233q-4 -9 -11 -16v0q-14 -14 -35 -13q-21 -1 -36 13v0q-7 7 -10 16l-137 136q-14 14 -14 33.5t14 33.5v0q14 14 33.5 14
t32.5 -14l117 -117l213 213q13 14 32.5 14t33.5 -14v0q14 -13 14 -32.5t-14 -33.5zM734 49h-448q-23 0 -39.5 -16.5t-16.5 -40t16.5 -39.5t39.5 -16h448q23 0 39.5 16t16.5 39.5t-16.5 40t-39.5 16.5z" />
    <glyph glyph-name="treearrow-down" unicode="&#xe608;" 
d="M512 143l-392 392q-15 15 -15 35t15 35t35 15t35 -15l322 -322l322 322q15 15 35 15t35 -15t15 -35t-15 -35z" />
    <glyph glyph-name="training" unicode="&#xe617;" 
d="M316 555q10 -30 30 -42t40 0t30 42q13 7 15 23q3 22 -9 22q-1 24 -15 39.5t-40.5 15.5t-40.5 -14.5t-16 -40.5q-12 0 -9 -22q2 -16 15 -23zM450 191v22q19 0 31.5 13t12.5 31v2l172 171q8 8 -0.5 16.5t-16.5 0.5l-155 -155v146q0 24 -15.5 42.5t-39.5 23.5l-24 5l-49 -98
l-49 98l-24 -5q-24 -5 -39.5 -23.5t-15.5 -42.5v-181q0 -18 13 -31t31 -13v-22h168zM98 343q0 -50 36 -86t87 -36h1q-10 17 -10 36v17q-26 3 -44 23t-18 46v333q0 29 21 49.5t50 20.5h583q29 0 50 -20.5t21 -49.5v-333q0 -29 -21 -49.5t-50 -20.5h-258l-26 -26
q-2 -13 -11 -26h295q51 0 87 36t36 86v333q0 50 -36 86t-87 36h-583q-51 0 -87 -36t-36 -86v-333zM270 148h-92q-33 0 -56.5 -23.5t-23.5 -56.5v-105h252v105q0 33 -23.5 56.5t-56.5 23.5zM560 148h-92q-33 0 -56.5 -23.5t-23.5 -56.5v-105h252v105q0 33 -23.5 56.5
t-56.5 23.5zM850 148h-92q-33 0 -56.5 -23.5t-23.5 -56.5v-105h252v105q0 33 -23.5 56.5t-56.5 23.5z" />
    <glyph glyph-name="group-2" unicode="&#xe64c;" 
d="M447 623q15 -47 46 -64.5t61.5 0t45.5 64.5q8 4 15 15t8 21q5 33 -13 33q-3 37 -24 60.5t-61 23.5q-41 0 -63 -22.5t-25 -61.5q-18 0 -13 -33q1 -10 8 -21t15 -15zM721 443q0 37 -24 65t-62 36l-36 8l-76 -151l-75 151l-36 -8q-38 -8 -62 -36t-24 -65v-91h395v91z
M220 184q11 -31 31 -43t40.5 0t30.5 43q14 7 16 24q3 22 -9 22q-2 25 -16 40.5t-41 15.5t-41.5 -15t-16.5 -41q-12 0 -9 -22q2 -17 15 -24zM346 132l-24 5l-51 -100l-50 100l-24 -5q-25 -5 -41 -24t-16 -43v-61h262v61q0 24 -15.5 43t-40.5 24zM709 208q2 -17 16 -24
q10 -31 30.5 -43t40.5 0t31 43q13 7 15 24q1 9 -0.5 15.5t-8.5 6.5q-2 25 -16 40.5t-41 15.5t-41.5 -15t-16.5 -41q-12 0 -9 -22zM850 132l-24 5l-50 -100l-51 100l-24 -5q-25 -5 -40.5 -24t-15.5 -43v-61h262v61q0 24 -16 43t-41 24zM669 188q0 10 -7 17t-17 7h-97v94
q0 10 -7 17t-17 7t-17.5 -7t-7.5 -17v-94h-97q-10 0 -17 -7t-7 -17t7 -17t17 -7h243q10 0 17 7t7 17z" />
    <glyph glyph-name="zoom-in" unicode="&#xe906;" 
d="M432 824q73 0 140 -28.5t115 -76.5t76.5 -115t28.5 -140q0 -63 -20.5 -120.5t-58.5 -104.5l227 -227q12 -11 12 -28t-11.5 -28.5t-28.5 -11.5t-28 12l-227 227q-47 -38 -104.5 -58.5t-120.5 -20.5q-73 0 -140 28.5t-115 76.5t-76.5 115t-28.5 140t28.5 140t76.5 115
t115 76.5t140 28.5zM432 744q-57 0 -109 -22t-89.5 -59.5t-59.5 -89.5t-22 -109t22 -109t59.5 -89.5t89.5 -59.5t109 -22t109 22t89.5 59.5t59.5 89.5t22 109t-22 109t-59.5 89.5t-89.5 59.5t-109 22zM432 624q17 0 28.5 -11.5t11.5 -28.5v-80h80q17 0 28.5 -11.5
t11.5 -28.5t-11.5 -28.5t-28.5 -11.5h-80v-80q0 -17 -11.5 -28.5t-28.5 -11.5t-28.5 11.5t-11.5 28.5v80h-80q-17 0 -28.5 11.5t-11.5 28.5t11.5 28.5t28.5 11.5h80v80q0 17 11.5 28.5t28.5 11.5z" />
    <glyph glyph-name="security-o" unicode="&#xe7ac;" 
d="M512 832l-344 -63v-494q0 -58 50 -123q45 -57 126 -115q77 -56 168 -101q91 45 168 101q81 58 126 115q51 65 51 123v494zM480 19q-23 15 -96 67q-69 50 -108 100q-43 55 -43 104v94h247v-365zM480 448h-247v266l247 48v-314zM795 290q0 -49 -44 -104q-39 -50 -108 -100
q-62 -45 -99 -68v366h251v-94zM795 448h-251v314l251 -48v-266z" />
    <glyph glyph-name="baojia-c" unicode="&#xe64d;" 
d="M1018 384.5q0 -103.5 -40.5 -197.5t-108.5 -162t-162 -108.5t-197.5 -40.5t-197.5 40.5t-162 108.5t-108.5 162t-40.5 197.5t40.5 197.5t108.5 162t162 108.5t197.5 40.5t197.5 -40.5t162 -108.5t108.5 -162t40.5 -197.5zM196 443h34v-57l-39 -7l5 -46l34 9v-57
q0 -8 -3 -11.5t-12 -3.5t-21 1q8 -28 11 -43q43 0 54.5 10t11.5 31v83l32 7q0 14 1 42q-16 -3 -33 -7v49h32v41h-32v56h-41v-56h-34v-41zM353 414v77h91q0 -16 -5 -20.5t-17 -4.5q-18 0 -45 2q6 -23 8 -40q32 0 53.5 0.5t34 12t14 33.5t2.5 54h-178v-301h42v26
q10 -16 16 -27q30 18 54 40q26 -24 58 -40q15 25 27 43q-32 11 -57 28q28 36 42 81v36h-140zM355 354q17 -32 39 -57q-18 -14 -41 -25v105h96q-9 -31 -29 -55q-22 23 -37 52zM516 398q12 -36 16 -56q13 17 25 35v-148h43v227q15 34 27 69l-44 13q-29 -88 -67 -140zM742 230
h47v174q11 -11 24 -20l21 46q-55 36 -87 93l7 10h-53q-39 -66 -96 -109q13 -25 22 -43l24 20q0 -35 -1 -51q-1 -56 -39 -92q22 -18 34 -32q51 41 51 130q1 17 1 50h-42q41 38 67 82q25 -46 64 -82h-44v-176v0z" />
    <glyph glyph-name="rulerpen" unicode="&#xe623;" 
d="M120 -1l263 74l27 27l-185 186l-27 -28l-78 -259v0zM256 317l185 -186l363 362l-186 186zM887 688l-74 74q-32 32 -55.5 32t-55.5 -32l-53 -52l186 -186l52 53q32 32 32 55.5t-32 55.5v0v0zM380 757q-32 32 -55.5 32t-55.5 -32l-176 -176l-31 31l186 185q31 32 76.5 32
t77.5 -32l102 -102l-31 -31zM170 565l62 62l31 -31l-62 -61l-3 3l34 -34l93 92l31 -31l-93 -92l9 -10l-31 -31l-148 149l31 31zM603 133l139 -139l145 145q32 32 32 55.5t-32 55.5l-97 98l31 31l106 -107q32 -32 32 -77t-32 -77l-185 -186l-184 184l31 31zM726 195l-92 -93
l-31 31l92 93zM742 148l31 -30l-78 -78l-30 31zM742 148z" />
    <glyph glyph-name="erpsearch" unicode="&#xe64e;" 
d="M512 217h-309q-5 0 -8.5 3.5t-3.5 8.5v467q0 5 3.5 8.5t8.5 3.5h614q5 0 8.5 -3.5t3.5 -8.5v-312h67v372q0 5 -3.5 8t-9.5 3h-742q-5 0 -8.5 -3t-3.5 -8v-587q0 -5 3.5 -8.5t8.5 -3.5h371v60zM956 24l-102 102q27 37 27 84q0 59 -41.5 101t-101 42t-101.5 -42t-42 -101
t42 -101t101 -42q44 0 81 24l102 -102q6 -6 15 3l17 17q9 9 3 15zM631 209.5q0 44.5 31.5 76t76 31.5t76 -31.5t31.5 -76t-31.5 -76t-76 -31.5t-76 31.5t-31.5 76zM355 481v-35h-63v-47h99v-35h-152v209h152v-35h-99v-57h63zM604 364h-64l-60 69v-69h-53v209h80q37 0 62 -18
q21 -17 21 -49q0 -29 -23 -44q-16 -9 -38 -12zM480 483h16q23 1 32 6q9 6 9 17q0 16 -8 24q-9 8 -33 8h-16v-55zM770 462q-22 -14 -55 -14h-27v-84h-53v209h80q29 0 56 -19q22 -16 22 -48q0 -29 -23 -44zM688 483h11q24 0 32 6q9 5 9 17q0 16 -9 24q-11 8 -32 8h-11v-55z
" />
    <glyph glyph-name="group-o" unicode="&#xe6a8;" 
d="M509.5 449q73.5 0 126 55t52.5 133t-52.5 133t-126 55t-126 -55t-52.5 -133t52.5 -133t126 -55zM509.5 731q36.5 0 63 -27.5t26.5 -66.5t-26.5 -66.5t-63 -27.5t-63 27.5t-26.5 66.5t26.5 66.5t63 27.5zM241.5 308q-73.5 0 -126 -55.5t-52.5 -133t52.5 -132.5t126 -55
t126 55t52.5 132.5t-52.5 133t-126 55.5zM241.5 26q-36.5 0 -63 27.5t-26.5 66.5t26.5 66.5t63 27.5t63 -27.5t26.5 -66.5t-26.5 -66.5t-63 -27.5zM509.5 397q-33.5 0 -59 -27t-25.5 -62t25.5 -62t59 -27t59.5 27t26 62t-26 62t-59.5 27zM777.5 308q-73.5 0 -126 -55.5
t-52.5 -133t52.5 -132.5t126 -55t126 55t52.5 132.5t-52.5 133t-126 55.5zM777.5 26q-36.5 0 -63 27.5t-26.5 66.5t26.5 66.5t63 27.5t63 -27.5t26.5 -66.5t-26.5 -66.5t-63 -27.5z" />
    <glyph glyph-name="cloud-o-updown" unicode="&#xe725;" 
d="M919 463q-41 54 -106 72l-3 1l-1 2q-36 93 -117 148.5t-179 55.5q-100 0 -183 -57q-80 -56 -116 -147l-1 -2l-2 -1q-64 -18 -105 -72q-42 -55 -42 -123q0 -84 61 -144t146 -60q16 0 27.5 10.5t11.5 25.5q0 17 -11 27t-28 10q-54 0 -92.5 38.5t-38.5 92.5q0 48 27 82
q37 51 100 52q10 37 31 70l3 6v0q33 55 88 86q57 33 124 33q63 0 119 -31q54 -30 87 -82q5 -6 9 -13q3 -5 5 -8v-1v0q16 -27 24 -57q58 -3 95 -49q34 -37 34 -88q0 -54 -39 -92.5t-94 -38.5q-15 0 -26 -10t-11 -27q0 -14 11 -25t26 -11q86 0 146 60q60 59 60 144
q0 69 -40 123zM632 225q-15 0 -27 -12l-59 -65v47v0v211l59 -65q12 -12 24 -12q15 0 25.5 10t10.5 24t-10 24v0l-117 131q-13 10 -26 10q-16 0 -27 -10l-119 -130q-8 -14 -8 -25q0 -13 10.5 -23.5t23.5 -10.5q15 0 27 12l59 65v-47v0v-211l-59 65q-12 12 -24 12
q-15 0 -26 -10t-11 -24t10 -24v0l117 -131q13 -10 27 -10q16 0 26 10l119 130q8 14 8 25q0 14 -10 24t-23 10z" />
    <glyph glyph-name="close-c-o" unicode="&#xe625;" horiz-adv-x="1114" 
d="M716 503q-10 10 -24 10t-24 -10l-85 -85l-84 85q-10 10 -24.5 10t-24.5 -10t-10 -24.5t10 -24.5l85 -84l-85 -85q-10 -10 -10 -24t10 -24t24.5 -10t24.5 10l84 85l85 -85q10 -10 24 -10t24 10t10 24t-10 24l-85 85l85 84q10 10 10 24.5t-10 24.5v0zM583 796
q-116 0 -214 -57t-155.5 -155t-57.5 -214t57.5 -214.5t155.5 -155.5t214 -57t214.5 57t155.5 155.5t57 214.5t-57 214t-155.5 155t-214.5 57v0zM583 11q-97 0 -179.5 48t-130.5 130.5t-48 180t48 180t130.5 130.5t179.5 48t180 -48t130.5 -130.5t47.5 -180t-47.5 -180
t-130.5 -130.5t-180 -48v0zM583 11z" />
    <glyph glyph-name="add-s" unicode="&#xe620;" 
d="M62 834v-900h900v900h-900zM730 346h-180v-180h-60v180h-180v60h180v180h60v-180h180v-60z" />
    <glyph glyph-name="pc" unicode="&#xe6e8;" 
d="M640 32l-64 128h326q24 0 41 17t17 41v524q0 24 -17 41t-41 17h-780q-24 0 -41 -17t-17 -41v-524q0 -24 17 -41t41 -17h326l-64 -128h-384v-64h1024v64h-384zM186 224q-24 0 -41 17t-17 41v396q0 24 17 41t41 17h652q24 0 41 -17t17 -41v-396q0 -24 -17 -41t-41 -17h-652
z" />
    <glyph glyph-name="rain" unicode="&#xe771;" 
d="M770 87q96 0 164.5 64.5t68.5 155.5q0 74 -46 132t-120 79l21 -25q-11 122 -106.5 205.5t-225.5 83.5q-129 0 -224 -81t-108 -201l23 25q-82 -15 -135.5 -75.5t-53.5 -140.5q0 -91 68.5 -155.5t164.5 -64.5q12 0 20 8.5t8 20t-8 20t-20 8.5q-73 0 -124.5 48t-51.5 115
q0 59 40.5 104t101.5 56q10 2 16 9t7 16q11 98 90 164.5t186 66.5q108 0 187.5 -68.5t87.5 -168.5q2 -19 21 -25q55 -15 89.5 -58.5t34.5 -97.5q0 -67 -51.5 -115t-124.5 -48q-12 0 -20 -8t-8 -20t8 -20.5t20 -8.5v0v0zM774 144h-4q-12 0 -20 -8t-8 -20t8 -20.5t20 -8.5h4
q12 0 20.5 8.5t8.5 20.5t-8.5 20t-20.5 8v0zM467 251l-164 -209q-7 -9 -6 -21t10.5 -19t21 -6t19.5 11l164 208q7 10 5.5 21.5t-10.5 19t-21 6t-19 -10.5v0zM661 251l-164 -209q-7 -9 -6 -21t10.5 -19t21 -6t19.5 11l164 208q7 10 5.5 21.5t-11 19t-21 6t-18.5 -10.5v0z" />
    <glyph glyph-name="nodata" unicode="&#xe64f;" 
d="M790 689v0l-295 148l-295 -148v-295l295 -147l295 147v295v0zM495 801l222 -111l-84 -43l-223 111zM371 737l226 -109l-102 -49l-221 110zM237 652h12h-12v19l240 -120v-258l-240 120v239zM754 634v-221l-240 -120v258l240 120v-37zM155 -66v-15h-18q1 7 1.5 12t0.5 9v43
q0 3 -0.5 7.5t-1.5 8.5q4 0 9.5 -0.5t12.5 -0.5h18h22.5h22.5h17t12.5 0.5t9.5 0.5q-1 -3 -1.5 -7t-0.5 -9v-38q0 -5 0.5 -10t1.5 -11h-18v10h-88v0zM229 52q0 -6 -1.5 -12.5l-3 -13t-4 -12t-5.5 -8.5q-7 5 -17 8q6 4 9.5 11t5 16.5t1.5 22.5t-2 30l16 2t15.5 3t15 4.5
t13.5 5.5q2 -4 4.5 -8t5.5 -8q2 -2 1.5 -3t-3.5 0h-4t-9 -1t-15 -3q-10 -1 -23 -4v-17h31q6 0 10 1h8h6q4 1 7 1v-17l-11 1q-6 1 -14 1v-18q0 -8 1 -14q0 -5 1 -13h-19q1 8 1 13.5v13.5v18h-21zM156 58v10q0 3 -1 5h4q0 -1 1.5 -1h2.5h5h3.5t2 -1t-1.5 -2t-2 -5v-5
q12 1 20 1q8 1 12 2v-14h-4h-6h-9q-5 -1 -13 -1v-15l14 2q5 1 14 2q-1 -3 -1.5 -7t-0.5 -7l-26 -2q0 -4 1 -8v-8h-16v7q1 1 1 3.5v3.5q-11 -1 -21 -3t-21 -4q0 4 -0.5 8.5t-2.5 8.5q12 1 23 1q12 1 22 2v15l-24 -3t-13 -2q-1 7 -4 14q3 3 7 9.5t8 14.5h-11t-9 -1v17
q5 -1 10.5 -1.5t15.5 -0.5q4 9 6 17q4 -2 9.5 -3.5t7.5 -0.5q3 0 4 -2t-3 -4q-2 -1 -4 -2.5t-4 -4.5h18h13t10 0.5t7 1.5v-17q-3 1 -8 1h-10h-16q-8 1 -21 1l-12 -23l23 1v0zM243 -29v14h-88v-14h88zM155 -41v-13h88v13h-88zM407 38q13 0 25 1h11h13h21q10 0 17 1v-19
q-10 1 -26 1.5t-34 0.5v-66q0 -5 3 -6.5t11 -1.5q10 0 16 0.5t9 3t4.5 8t2.5 16.5q6 -6 11.5 -9.5t8.5 -2.5q-3 -12 -6 -18.5t-8 -10t-13.5 -4.5t-23.5 -1q-11 0 -17 0.5t-9.5 3t-5 6.5t-1.5 11v71h-12q-4 -19 -9.5 -33t-14 -25.5t-20 -21t-28.5 -18.5q-2 3 -6.5 7.5
t-9.5 8.5q16 6 27.5 13.5t20 17.5t14 22.5t8.5 28.5q-19 0 -36 -1q-15 0 -27 -1v19q12 -1 28 -1q18 0 38 -1q0 9 1 20t1 23h-28q-13 -1 -22 -1v18q12 0 28 -0.5t37 -0.5h20h19q6 1 18 1h13v-18q-5 0 -13 1h-16h-9.5h-8.5h-19q0 -10 -1 -21l-2 -22v0v0zM611 21q-4 5 -9 10
t-10 9l11 8q5 -5 10 -9l8 -8l-10 -10v0zM544 75q-1 5 -1.5 10t-1.5 11l16 2q2 -5 2.5 -10.5t1.5 -9.5zM622 93q-2 -1 -5 -5l-7 -14q-2 1 -6 1.5t-9 0.5q4 6 6 11t4 13q4 -1 9 -2.5t8 -1.5q2 0 2 -1t-2 -2v0zM662 -15q6 13 10 31.5t5 44.5h-24q-2 -7 -5 -14t-7 -13h13
q0 -16 2 -28t6 -21v0zM663 -44q-8 -8 -19 -16t-28 -15q-2 4 -5.5 7.5l-7.5 7.5q7 1 14 4t14 6.5t12.5 8.5t10.5 10q-4 6 -6 12.5t-3.5 14.5t-2.5 17t-1 19q-7 -12 -15 -21q-5 8 -10 11q6 9 11.5 19t9.5 21.5t6.5 23t3.5 22.5q4 -1 10.5 -2.5t10.5 -1.5q2 0 2.5 -1.5
t-3.5 -3.5l-1 -1t-2 -3q-1 -3 -2 -8q-2 -4 -5 -13h24q10 0 16 0.5t10 1.5v-17q-5 1 -14 1q-2 -17 -3.5 -30.5t-4 -24.5t-6 -19.5t-7.5 -16.5q6 -6 15 -11t23 -10q-5 -4 -7.5 -9t-3.5 -10q-7 4 -13 8q-6 3 -10 6.5t-7.5 6.5t-5.5 6v0zM606 -35q5 -2 9.5 -3.5t8.5 -4.5
q-3 -3 -5 -5.5t-4 -6.5q-4 2 -8.5 4t-8.5 4q-5 -5 -10.5 -8.5t-13 -6.5t-16.5 -5.5t-21 -5.5q-2 4 -6 9t-8 8q19 0 34 3.5t25 10.5q-8 3 -17 4q-9 2 -20 4q4 6 7 12t6 13q-10 0 -17 -1q-7 0 -12 -1v15q5 0 14 -1h19l2 8t3 9q5 -2 8.5 -2.5t8.5 -1.5q4 0 4 -1t-3 -3
q-2 -1 -3.5 -3t-3.5 -6h28q9 0 14 1q-3 -12 -6.5 -22t-7.5 -17v0v0zM565 -26q8 -1 14.5 -2t12.5 -3q6 9 9 22h-29l-7 -17v0zM562 55q-9 0 -17 -0.5t-14 -0.5v14q8 0 18 -1h23v19q0 6 -0.5 11.5t-1.5 10.5q5 0 9.5 -0.5t9.5 -0.5q3 0 3 -1t-2 -2t-2.5 -2t-0.5 -4v-31
q12 0 22 1h17v-14h-16q-11 1 -23 1q0 -10 0.5 -17.5t1.5 -15.5h-18q0 7 1 15v16q-4 -8 -7.5 -13.5t-7.5 -10t-9 -9t-11 -9.5q-3 4 -6.5 7t-9.5 6q13 4 23.5 12.5t17.5 18.5v0v0zM818 61h72v21h-72v-21zM759 46q-8 0 -14 -0.5t-11 -1.5v17q5 -1 11 -1h14v20v12t-1 8q0 3 -1 6
q6 -1 10 -1h8q10 0 3 -5q-2 -2 -3 -3.5t-1 -4.5v-32q5 0 9.5 0.5t7.5 1.5v-18q-3 0 -7 0.5t-10 1.5v-29q10 4 18 9q0 -5 0.5 -9.5t2.5 -7.5q-5 -2 -10 -3.5t-11 -3.5v-56q0 -6 -0.5 -10t-3.5 -6.5t-9.5 -4t-17.5 -3.5q0 5 -1.5 10t-6.5 11q13 -2 18.5 -0.5t5.5 6.5v46
q-14 -6 -24 -14q0 4 -1 10t-3 12q15 4 28 8v35zM888 -22h-47v-31h47v31zM870 -10h14h9q4 0 7 0.5t5 0.5q-1 -3 -1 -7v-10v-28q0 -6 0.5 -11t1.5 -10h-18v8h-47v-10h-18q1 5 1.5 10t0.5 10v31q0 5 -0.5 9.5t-0.5 7.5q2 0 4.5 -0.5t6 -0.5h8.5h12v22q-12 0 -20 -0.5t-15 -1.5
v17q7 -1 15 -1.5t20 -0.5v23h-37q0 -16 -1 -29q0 -12 -1 -22.5t-3 -19.5t-4.5 -17.5t-6.5 -17t-9 -17.5q-3 2 -7.5 4t-9.5 2q6 9 10.5 18t7.5 18.5t5 21t2 24.5q1 7 1 17v20v24q-1 12 -1 23q2 0 6 -1h9q5 -1 14 -1h21h22q9 1 15.5 1t10.5 1h7q-1 -5 -1 -12q-1 -6 -1 -13.5
t0.5 -13t1.5 -13.5q-5 2 -14.5 2.5t-21.5 0.5v-23q29 0 46 2v-17q-8 1 -19.5 1.5t-26.5 0.5v-22v0z" />
    <glyph glyph-name="close-c" unicode="&#xe66b;" 
d="M512 831q-91 0 -173.5 -35.5t-142.5 -95.5t-95.5 -142.5t-35.5 -173.5t35.5 -174t95.5 -143t142.5 -95t173.5 -35t174 35t143 95t95 143t35 174t-35 173.5t-95 142.5t-143 95.5t-174 35.5zM683 265q6 -5 6 -13t-6 -13l-26 -26q-5 -6 -13 -6t-13 6l-119 118l-118 -118
q-6 -6 -13.5 -6t-13.5 6l-26 26q-6 5 -6 13t6 13l118 119l-118 118q-6 6 -6 13.5t6 13.5l26 26q6 6 13.5 6t13.5 -6l118 -118l119 118q5 6 13 6t13 -6l26 -26q6 -6 6 -13.5t-6 -13.5l-118 -118z" />
    <glyph glyph-name="bohui-s-o" unicode="&#xe65f;" 
d="M298 -30q-20 0 -37.5 11.5t-25.5 29.5l-178 379q-12 27 -2 54.5t36 39.5l605 283q25 12 53 2t40 -36l178 -379q12 -27 2 -54.5t-36 -39.5l-605 -283q-14 -7 -30 -7zM726 735q-8 0 -14 -3l-605 -283q-12 -5 -16.5 -17.5t1.5 -24.5l177 -380q6 -11 18.5 -16t24.5 1l605 283
q12 5 16.5 17.5t-1.5 24.5l-177 380q-9 18 -29 18zM357 303q11 2 15.5 -1t6.5 -5t5 -9q4 -8 16 -40q7 -17 11 -27q4 -12 2.5 -23.5t-11.5 -22.5t-24 -17q-7 -3 -10.5 -2t-6.5 4.5t-5 7.5q-3 7 -1.5 12.5t5.5 7.5l9 4q2 0 6.5 5.5t4.5 12t-3 14.5q-2 4 -8 21q-6 14 -8 19
l-3 7l-45 -21q-12 -6 -18.5 -4.5t-10 6.5t-6.5 12q-2 5 -9 25t-10 27.5t-4.5 14.5t8.5 12q5 2 10.5 1.5t8.5 -3t5 -8.5q1 -4 6 -19l7 -21q1 -6 2 -9t3 -4t5 1l18 9l-26 71q-3 7 -12 3l-44 -21q-3 -2 -8.5 0t-8.5 9t-1 11.5t5 6.5l46 21q18 8 27.5 6t15 -9t7.5 -12zM319 183
q-7 -2 -11 4t-4 10q-1 4 0.5 7t12 12.5t15.5 16.5l9 10q9 10 17 6.5t9 -10.5q1 -8 -5 -16t-20.5 -23t-22.5 -17zM385 386q-37 4 -39.5 4.5t-4.5 2.5t-2 7q-1 6 2 11.5t12 8.5q9 2 46 -4q3 9 5 13q2 5 4 12q1 7 2 8q1 2 3 5t10.5 4.5t12.5 -3t5 -8t0 -9.5t-10 -26
q14 -3 32 -5.5t23 -8.5t4 -13q-2 -8 -9 -12q-5 -3 -9 -2q-5 0 -15 3q-11 2 -39 6q-23 -45 -30 -51.5t-11 -7.5q-4 -2 -9.5 0t-8.5 6t-3 8q0 3 2 7t9 13t18 31zM451 262q-17 10 -28 19q-10 9 -18 17.5t-9 12.5q-3 6 0 12.5t10 8.5q8 2 11 0t10.5 -12.5t30.5 -25.5q0 12 1 20
q0 8 -1 16q-1 9 -1 13.5t2.5 8t8.5 5.5q9 4 14 0t6.5 -6.5t1.5 -10.5q1 -25 0.5 -32.5t-2.5 -27.5q25 -8 42.5 -6t21 -3t4.5 -16.5t-11 -14t-31.5 1t-21.5 3.5l-12 5q-3 -7 -5 -13l-6 -10t-10 -16q-8 -11 -11.5 -15t-10 -6t-13.5 3.5t-6.5 11t2.5 8.5t11 14.5t20 34.5z
M758 356l-129 -60q-31 -15 -42.5 -1t-13.5 19l-62 131q-1 4 -2.5 12t3.5 20.5t23 20.5l128 60q30 14 43 0t15 -19l60 -128q3 -7 4 -14t-4.5 -20t-22.5 -21zM748 400l-57 122q-2 4 -7 7t-12 0l-120 -57q-7 -3 -8.5 -8t1.5 -10l57 -123q1 -2 5.5 -6t13.5 0l120 56q7 3 8 9
t-1 10zM689 468l17 -35q1 -4 3 -18.5t-24 -27.5l-35 -16q-26 -12 -35.5 -0.5t-11.5 14.5l-16 35q-2 4 -4.5 19.5t22.5 27.5l33 15q29 14 39 2.5t12 -16.5zM674 426l-10 22q-2 4 -7.5 6.5t-11.5 -0.5l-21 -10q-4 -2 -5.5 -7.5t0.5 -9.5l10 -22q2 -3 6.5 -5t9.5 0l21 10
q6 3 7.5 8t0.5 8z" />
    <glyph glyph-name="cloud" unicode="&#xe772;" 
d="M913 276q-24 -31 -59 -50q-45 -26 -98 -26h-492q-47 0 -89 21q-50 25 -81 73t-31 106q0 31 10 61q11 49 41.5 87t71.5 56l7.5 3t11.5 3t13.5 5.5t7.5 10.5q2 10 7 21q12 46 46.5 78t80.5 40q6 1 9 2q45 6 55 6t39 -6q52 -11 96 -57l1 -1l1 -1q15 -15 17 -16q4 1 18 7
t22 7q21 4 45 0q65 -10 100 -60q4 -5 8 -11q7 -13 15 -37q1 -1 3 -7.5t3 -10.5v0h1.5h1.5q7 -1 13 -2q65 -13 104 -52q28 -35 39 -78q6 -25 6 -48q0 -69 -44 -124z" />
    <glyph glyph-name="bag-s" unicode="&#xe650;" 
d="M873 838h-722q-38 0 -65.5 -27.5t-27.5 -65.5v-722q0 -38 27.5 -65.5t65.5 -27.5h722q38 0 65.5 27.5t27.5 65.5v722q0 38 -27.5 65.5t-65.5 27.5zM791 580l-2 -1l-1 -2q-14 -103 -93.5 -171.5t-182.5 -68.5t-182.5 68.5t-93.5 171.5l-1 2l-2 1q-22 13 -22 37
q0 18 13 30.5t31 12.5t30.5 -12.5t12.5 -30.5q0 -20 -16 -33l-2 -2l1 -2q13 -86 78.5 -142t152.5 -56t152.5 56t78.5 142l1 2l-2 2q-16 13 -16 33q0 18 12.5 30.5t30.5 12.5v0v0v0q18 0 31 -12.5t13 -30.5q0 -24 -22 -37z" />
    <glyph glyph-name="table-2" unicode="&#xe95f;" 
d="M857 -12h-741v792h792v-792h-51zM857 38v198h-197v-198h197zM611 38v198h-198v-198h198zM364 38v198h-198v-198h198zM364 729h-198v-197h198v197zM166 483v-199h198v199h-198zM611 729h-198v-197h198v197zM413 483v-199h198v199h-198zM857 729h-197v-197h197v197z
M660 483v-199h197v199h-197z" />
    <glyph glyph-name="anglearrowpointingtoright" unicode="&#xe61e;" 
d="M724 363l0.5 1t0.5 2q7 13 4.5 28t-13.5 26l-344 325q-14 13 -33 12.5t-32.5 -14.5t-13 -33.5t14.5 -32.5l309 -292l-308 -296q-14 -13 -14 -32.5t13 -33.5q14 -14 34 -14q19 0 32 13l341 328l0.5 1t1 1.5l1.5 1.5t6 9v0zM724 363z" />
    <glyph glyph-name="exc-c-o" unicode="&#xe615;" 
d="M512 754q-100 0 -185.5 -49.5t-135 -135t-49.5 -185.5t49.5 -185.5t135 -135t185.5 -49.5t185.5 49.5t135 135t49.5 185.5t-49.5 185.5t-135 135t-185.5 49.5zM512 64q-87 0 -160.5 43t-116.5 116.5t-43 160.5t43 160.5t116.5 116.5t160.5 43t160.5 -43t116.5 -116.5
t43 -160.5t-43 -160.5t-116.5 -116.5t-160.5 -43zM475.5 180q-14.5 15 -14.5 37q0 21 15 35.5t36 14.5t36 -14.5t15 -35.5q0 -22 -14.5 -37t-36.5 -15t-36.5 15zM470 339q0 -18 11.5 -30t30 -12t30.5 12t12 30v222q0 19 -12 30.5t-31 11.5q-18 0 -29.5 -12t-11.5 -30v-222z
" />
    <glyph glyph-name="group" unicode="&#xe651;" 
d="M479 496h56v-337h-56v337zM821 384h-618q-13 0 -21 -7.5t-8 -20.5v-310h57v282h562v-225h57v253q0 13 -8 20.5t-21 7.5zM704 553q0 -26 -15.5 -41.5t-41.5 -15.5h-281q-25 0 -40.5 15.5t-15.5 41.5v225q0 25 15.5 40.5t40.5 15.5h281q26 0 41.5 -15.5t15.5 -40.5v-225z
M310 -10q0 -25 -15.5 -40.5t-40.5 -15.5h-113q-25 0 -40.5 15.5t-15.5 40.5v113q0 25 15.5 40.5t40.5 15.5h113q25 0 40.5 -15.5t15.5 -40.5v-113zM624 -10q0 -25 -15 -40.5t-41 -15.5h-112q-26 0 -41 15.5t-15 40.5v113q0 25 15 40.5t41 15.5h112q26 0 41 -15.5t15 -40.5
v-113zM939 -10q0 -25 -15.5 -40.5t-40.5 -15.5h-113q-25 0 -40.5 15.5t-15.5 40.5v113q0 25 15.5 40.5t40.5 15.5h113q25 0 40.5 -15.5t15.5 -40.5v-113z" />
    <glyph glyph-name="personin-o" unicode="&#xe8d3;" 
d="M584 443h294v-51h-294v51zM673 67l-2 2h-579q-17 0 -29 12t-12 29v538q0 17 12 30t29 13h824q18 0 29.5 -11.5t11.5 -29.5v-322l3 -3q22 -13 36 -31l10 -12v378q0 33 -23.5 56.5t-55.5 23.5h-848q-32 0 -55.5 -23.5t-23.5 -56.5v-563q0 -32 23.5 -55.5t55.5 -23.5h628
l-8 10q-10 13 -26 39zM584 330h87v-51h-87v51zM584 553h294v-51h-294v51zM166 573q-15 0 -25 -9.5t-10 -23.5v-335q0 -14 10 -23.5t25 -9.5h318q15 0 25.5 9.5t10.5 23.5v333q0 13 -11 23t-25 10h-318v2zM202 218q0 22 10 35q6 6 6 8q6 8 9 11.5t14 9t28 7.5q19 4 31 16
q7 11 7 43v13v5q-23 31 -23 54v23q0 33 16 51q10 10 23 10l35 -12h3q16 0 25.5 -13t11 -22t1.5 -14v-28q0 -36 -23 -46l-2 -3v-2v-13q-10 -31 0 -46q7 -16 28 -16q35 -4 59 -28l5 -5q5 -5 10 -36h-274v-2zM476 212v0v0v0zM852 323q-71 0 -119.5 -49t-48.5 -120
q0 -70 49.5 -119.5t118.5 -49.5q72 0 120.5 49t48.5 120q0 70 -49.5 119.5t-119.5 49.5zM850 51q-6 -6 -16 -6t-17 6l-72 72q-6 6 -6 15.5t6 15t16 5.5t17 -5l57 -57l110 108q5 6 15 6t18 -6q6 -6 6 -15.5t-6 -15.5z" />
    <glyph glyph-name="calendar" unicode="&#xe646;" 
d="M377 737v-133q0 -10 -8 -17.5t-19 -7.5h-1q-11 0 -19 7.5t-8 17.5v133q0 11 8 18.5t19 7.5h1q11 0 19 -7.5t8 -18.5zM671 763h-1q-11 0 -19 -7.5t-8 -18.5v-133q0 -10 8 -17.5t19 -7.5h1q11 0 19 7.5t8 17.5v133q0 11 -8 18.5t-19 7.5zM611 643v52h-198v-52h198zM886 621
v-541q0 -31 -22 -53t-53 -22h-598q-31 0 -53 22t-22 53v541q0 31 22 52.5t53 21.5h78v-52h-74q-11 0 -19 -7.5t-8 -18.5v-93h644v93q0 11 -8 18.5t-19 7.5h-74v52h78q31 0 53 -21.5t22 -52.5zM834 84v388h-644v-388q0 -11 8 -18.5t19 -7.5h590q11 0 19 7.5t8 18.5zM261 309
h109v109h-109v-109zM458 309h109v109h-109v-109zM261 113h109v108h-109v-108zM458 113h109v108h-109v-108zM654 418v-109h109v109h-109zM654 221v-108h109v108h-109z" />
    <glyph glyph-name="add-s-o" unicode="&#xe604;" 
d="M959 -58h-894v887h894v-887zM147 23h731v725h-731v-725zM226 425h569v-82h-569v82zM470 669h81v-569h-81v569z" />
    <glyph glyph-name="sync-c-o" unicode="&#xe655;" 
d="M512 834q-122 0 -225.5 -60.5t-164 -164t-60.5 -225.5t60.5 -225.5t164 -164t225.5 -60.5t225.5 60.5t164 164t60.5 225.5t-60.5 225.5t-164 164t-225.5 60.5zM512 -2q-104 0 -193 52t-141 141t-52 193t52 193t141 141t193 52t193 -52t141 -141t52 -193t-52 -193
t-141 -141t-193 -52zM599 210q-44 -19 -87 -19q-80 0 -136.5 56.5t-56.5 136.5q0 43 19 87q4 6 4 19q7 8 8.5 20t-5.5 22t-20 11.5t-25 -5.5l-97 -64q-11 -7 -14 -20t5 -25q19 -13 29 -13q6 0 19 7l19 12q-6 -32 -6 -51q0 -106 75.5 -181.5t181.5 -75.5q54 0 116 26
q12 4 16.5 16.5t-0.5 24.5q-7 15 -20 19.5t-25 -3.5zM827 339q-7 12 -20 14.5t-25 -4.5l-19 -13q6 32 6 51q0 106 -75.5 181.5t-181.5 75.5q-54 0 -116 -25q-12 -10 -16 -23t3 -26q5 -11 17.5 -16t24.5 0q41 23 87 23q80 0 136.5 -56.5t56.5 -136.5q0 -43 -19 -87
q-4 -6 -4 -19q-7 -8 -8.5 -18.5t5.5 -20.5q9 -13 26 -13q6 0 19 7l97 64q9 5 11 17.5t-5 24.5v0z" />
    <glyph glyph-name="grid" unicode="&#xe657;" 
d="M833 834v-900h129v900h-129zM576 834v-900h129v900h-129zM319 834v-900h129v900h-129zM62 834v-900h129v900h-129z" />
    <glyph glyph-name="anglepointingtoleft" unicode="&#xe624;" 
d="M300 405l-0.5 -1t-0.5 -2q-7 -13 -4.5 -28t13.5 -26l344 -325q14 -13 33 -12.5t32.5 14.5t13 33.5t-14.5 32.5l-309 292l308 296q14 13 14 32.5t-13 33.5q-14 14 -34 14q-19 0 -32 -13l-341 -328l-0.5 -1t-1 -1.5l-1.5 -1.5t-6 -9v0zM300 405z" />
    <glyph glyph-name="activate-3" unicode="&#xe65b;" 
d="M898 448q3 22 -17 44q-35 38 -114 121q-20 112 -31 164q-3 19 -17 31t-32 12q-12 0 -25 -5q-57 -27 -152 -73q-119 14 -170 19q-25 2 -42 -17q-16 -17 -14 -41q7 -65 20 -168q-52 -110 -72 -154q-12 -26 -2 -47q11 -20 34 -25q47 -9 170 -30q83 -79 124 -115
q18 -17 36 -17v0q26 0 43 29q30 54 83 151q94 52 147 82q27 16 31 39zM849 441q-51 -29 -151 -84q-5 -3 -8 -8q-41 -78 -85 -155q-6 -10 -10.5 -10t-12.5 6q-12 12 -30 28.5t-34 31.5t-30.5 28.5t-23.5 22l-9 8.5q-4 4 -9 5q-70 10 -175 31q-6 1 -8 5q-3 5 2 16l17.5 37.5
t20 42.5t18 38t13.5 29l5 11q3 5 2 10q-12 92 -21 173q0 7 5 13q4 4 11 4v0q99 -9 175 -19q5 -1 10 1l11 5.5t28.5 14t37.5 18t41.5 20t37.5 18.5q6 2 10 2q11 0 14 -14q18 -89 31 -169q1 -5 5 -9q42 -42 117 -125q8 -9 8 -14q-1 -5 -13 -12zM947 124l-145 145q-6 5 -13.5 5
t-12.5 -5t-5 -12.5t5 -13.5l146 -145q5 -5 12.5 -5t13 5t5.5 12.5t-6 13.5zM380 217q0 -10 -6.5 -16.5t-16.5 -6.5h-275q-10 0 -16.5 6.5t-6.5 16.5v12q0 10 6.5 16.5t16.5 6.5h275q10 0 16.5 -6.5t6.5 -16.5v-12zM380 100q0 -10 -6.5 -16.5t-16.5 -6.5h-275
q-10 0 -16.5 6.5t-6.5 16.5v12q0 10 6.5 16.5t16.5 6.5h275q10 0 16.5 -6.5t6.5 -16.5v-12zM380 -17q0 -10 -6.5 -16.5t-16.5 -6.5h-275q-10 0 -16.5 6.5t-6.5 16.5v12q0 10 6.5 16.5t16.5 6.5h275q10 0 16.5 -6.5t6.5 -16.5v-12z" />
    <glyph glyph-name="caven" unicode="&#xe663;" 
d="M511 792q24 0 47.5 -5t43.5 -14t36 -20.5t25 -22.5q21 -26 31 -57.5t14 -60.5q4 -32 4 -66q6 -4 9 -10t5 -15t1 -22q-2 -17 -7.5 -27.5t-11.5 -15.5q-7 -7 -16 -9q-4 -14 -8 -26q-4 -11 -9 -21t-12 -16q-15 -12 -25 -21t-13 -29q-3 -12 -2 -24.5t7 -25.5t18.5 -24.5
t35.5 -19.5q21 -9 45 -15.5t46.5 -15t40.5 -21t25 -34.5q4 -13 6 -32t2 -39t-3 -37t-8 -26q-4 -6 -23.5 -11.5t-47.5 -11t-63 -9.5q-34 -4 -69.5 -6.5t-67.5 -4.5t-55.5 -2t-55 2t-65 4.5t-66.5 6.5t-60 8t-45.5 8t-23.5 8q-8 6 -12.5 39.5t3.5 86.5q4 31 24 46.5t46.5 25
t55 17t50.5 21.5q17 10 26 20t13 19.5t4 20.5t-1 24q-1 18 -12.5 29.5t-25.5 22.5q-7 6 -11.5 16t-8.5 21q-4 12 -9 26q-5 1 -11 5q-5 4 -10.5 11.5t-9.5 21.5q-5 14 -4 25.5t4 19.5q4 9 11 17q-1 31 3 62q4 26 12.5 56t25.5 54q15 23 34.5 37t39.5 22.5t40 11t38 2.5v0v0z
M511 792z" />
    <glyph glyph-name="back" unicode="&#xe6e3;" 
d="M453 793l-389 -338l389 -337v227l66 16q203 38 303 -49q109 -96 61 -337q5 9 12 23.5t23.5 59.5t26.5 88t14 101t-6.5 107t-44.5 97.5t-89.5 81t-151 49.5t-221.5 10zM453 793z" />
    <glyph glyph-name="pass-2" unicode="&#xe65d;" 
d="M512 -43q-8 3 -21 8t-50.5 22.5t-72 37t-76 51t-71.5 64.5t-51 77t-21 89v375l363 130l363 -130v-375q0 -45 -20 -89t-52 -77.5t-71 -63.5t-77.5 -51.5t-70.5 -36.5t-52 -23zM663 517l-181 -181l-100 99l-60 -60l160 -160l241 242z" />
    <glyph glyph-name="reduce-s-o" unicode="&#xe719;" 
d="M62 834v-900h900v900h-900zM907 -5h-786v782h786v-782zM287 440h450v-112h-450v112z" />
    <glyph glyph-name="area" unicode="&#xe6ea;" 
d="M646 563l-268 179l-269 -313v-403h806v627zM870 70h-716v112l233 193l246 -81l22 -9l18 14l197 134v-363zM646 339l-268 90l-224 -188v170l233 269l237 -157l18 -14l22 9l206 72v-103z" />
    <glyph glyph-name="flag" unicode="&#xe65e;" 
d="M198 -34v0q-20 0 -34.5 14.5t-14.5 34.5v740q0 20 14.5 34.5t34.5 14.5v0q20 0 34.5 -14.5t14.5 -34.5v-740q0 -20 -14.5 -34.5t-34.5 -14.5zM277 731q276 113 334 36q17 -22 12 -49q27 14 90 28t113 21l49 7v-405q-19 4 -85.5 -11.5t-124.5 -32.5l-57 -17q25 99 -77 95
q-94 -4 -249 -81l-5 -2v411z" />
    <glyph glyph-name="box-o-2" unicode="&#xe610;" 
d="M516 487q-6 0 -12 2l-369 177q-16 8 -16 25.5t16 24.5l369 177q12 6 24 0l364 -177q16 -7 16 -24.5t-16 -25.5l-364 -177q-5 -2 -12 -2v0zM211 691l305 -146l301 146l-301 146zM516 66q-6 0 -12 3l-364 177q-11 5 -14.5 15.5t1.5 21t16 14.5t21 -1l352 -171l352 171
q10 5 21 1t16 -14.5t1.5 -21t-14.5 -15.5l-364 -177q-5 -3 -12 -3v0zM880 251q-11 0 -19.5 8t-8.5 20v407q0 12 8.5 20t20 8t19.5 -8t8 -20v-407q0 -12 -8 -20t-20 -8v0zM144 248q-12 0 -20 8t-8 20v410q0 12 8 20t19.5 8t20 -8t8.5 -20v-410q0 -12 -8.5 -20t-19.5 -8v0z
M540 512l4 -411h-56l-4 411h56zM540 512z" />
    <glyph glyph-name="arrow-s-o-down" unicode="&#xe660;" 
d="M175 -65q-46 0 -78.5 32.5t-32.5 78.5v672q0 46 32.5 78t78.5 32h672q45 0 77.5 -32t32.5 -78v-672q0 -46 -32.5 -78.5t-77.5 -32.5h-672v0zM175 757q-16 0 -27.5 -11.5t-11.5 -27.5v-672q0 -16 11.5 -27.5t27.5 -11.5h672q16 0 27 11.5t11 27.5v672q0 16 -11 27.5
t-27 11.5h-672zM604 103q-18 0 -32 16l-167 167q-17 20 -2 41q19 21 33 21q13 0 30 -17l102 -103v332q0 2 -1 5.5t-6 8.5t-14 5h-232q-16 0 -24 6q-12 9 -12 30q0 36 35 36h9q196 1 224 1q45 0 69 -23.5t24 -68.5v-326l83 98q14 13 29 13q13 0 23.5 -8t14.5 -19
q8 -20 -7 -32q-8 -9 -147 -167q-14 -16 -32 -16z" />
    <glyph glyph-name="arrow-s-o-up" unicode="&#xe662;" 
d="M174 -63q-46 0 -78.5 32.5t-32.5 78.5v672q0 46 32.5 78.5t78.5 32.5h672q46 0 78.5 -32.5t32.5 -78.5v-672q0 -46 -32.5 -78.5t-78.5 -32.5h-672zM174 759q-16 0 -27.5 -11.5t-11.5 -27.5v-672q0 -16 11.5 -27.5t27.5 -11.5h672q16 0 27.5 11.5t11.5 27.5v672
q0 16 -11.5 27.5t-27.5 11.5h-672zM546 114h-223h-9q-36 0 -36 36q0 21 13 30q8 6 23 6h232q9 0 14.5 5.5t6 9t1.5 5.5v331l-103 -102q-16 -17 -29 -17q-15 0 -33 20q-16 22 1 41l168 167q13 17 31 17t32 -17q139 -158 148 -166q14 -13 7 -32q-4 -11 -14.5 -19t-23.5 -8
q-16 0 -29 13l-84 98v-326q0 -45 -23.5 -68.5t-69.5 -23.5v0z" />
    <glyph glyph-name="building" unicode="&#xe6ee;" 
d="M716 587v-651h245v651h-245zM878 181h-81v121h81v-121zM878 383h-81v121h81v-121zM63 832v-896h570v896h-570zM310 181h-164v121h164v-121zM310 383h-164v121h164v-121zM310 587h-164v121h164v-121zM555 181h-164v121h164v-121zM555 383h-164v121h164v-121zM555 587h-164
v121h164v-121z" />
    <glyph glyph-name="tapp" unicode="&#xe773;" 
d="M428.5 719q11.5 0 19.5 8t8 20v56q0 11 -8 19t-19.5 8t-20 -8t-8.5 -19v-56q0 -12 8.5 -20t20 -8zM645 645l40 40q8 8 8 19.5t-8 19.5t-20 8t-20 -8l-39 -39q-8 -8 -8 -20t8 -20t19.5 -8t19.5 8zM93 440h56q12 0 20 8t8 19.5t-8 20t-20 8.5h-56q-11 0 -19 -8.5t-8 -20
t8 -19.5t19 -8zM679 467.5q0 -11.5 8.5 -19.5t19.5 -8h56q12 0 20 8t8 19.5t-8 20t-20 8.5h-56q-11 0 -19.5 -8.5t-8.5 -20zM211 645q8 -8 20 -8t20 8t8 20t-8 20l-40 39q-8 8 -19.5 8t-19.5 -8t-8 -19.5t8 -19.5zM763 384q-14 0 -27 -2q-44 60 -113 90q-2 79 -58.5 135
t-136.5 56t-137.5 -57.5t-57.5 -137.5q0 -44 20 -85q-78 -3 -132.5 -59.5t-54.5 -134.5q0 -81 57 -138.5t138 -57.5q36 0 69 13q79 -68 182 -68t182 68q33 -13 69 -13q81 0 138 57.5t57 138t-57 138t-138 57.5zM428 607q52 0 90.5 -33.5t47.5 -83.5q-29 6 -54 6
q-60 0 -113.5 -24.5t-92.5 -68.5q-17 31 -17 65q0 58 40.5 98.5t98.5 40.5zM763 49q-44 0 -80 26q-31 -38 -75.5 -60t-95.5 -22t-95.5 22t-75.5 60q-36 -26 -80 -26q-58 0 -99 41t-41 98.5t41 98.5t99 41q18 0 38 -6q13 -3 15 -4q10 20 28 41q31 38 75.5 59.5t94.5 21.5
q24 0 51 -7q28 -6 52 -19q63 -34 95 -96q26 10 53 10q58 0 99 -41t41 -98.5t-41 -98.5t-99 -41v0z" />
    <glyph glyph-name="treefolder" unicode="&#xe628;" 
d="M926.5 590.5q-35.5 35.5 -85.5 35.5h-364v18q0 49 -35.5 85t-85.5 36h-173q-50 0 -85.5 -36t-35.5 -85v-520q0 -49 35.5 -85t85.5 -36h658q50 0 85.5 36t35.5 85v381q0 50 -35.5 85.5z" />
    <glyph glyph-name="advice" unicode="&#xe6cf;" horiz-adv-x="1093" 
d="M669 247h-275q-7 0 -12 -5t-5 -12v-34q0 -7 5 -12t12 -5h275q7 0 12 5t5 12v34q0 7 -5 12t-12 5zM428 474.5q0 31.5 -22.5 54t-54.5 22.5t-54.5 -22.5t-22.5 -54t22.5 -53.5t54.5 -22t54.5 22t22.5 53.5zM961 589h-35q-1 0 -2.5 -0.5t-2.5 -0.5q-51 123 -162 198.5
t-247 75.5q-90 0 -172.5 -35t-141.5 -94.5t-94.5 -142t-35.5 -172.5q0 -147 87 -263t223 -159q5 -24 23.5 -40t43.5 -16h172q29 0 49 20t20 49v34q0 28 -20 48t-49 20h-172q-21 0 -38.5 -12.5t-24.5 -32.5q-109 41 -177 137t-68 215q0 102 50 188.5t136.5 137t188.5 50.5
q119 0 215 -68t137 -177q-7 -14 -7 -28v-205q0 -29 20 -49t49 -20h34q29 0 49 20t20 49v205q0 28 -20 48t-48 20zM711 551q-32 0 -54.5 -22.5t-22.5 -54t22.5 -53.5t54.5 -22t55 22t23 53.5t-23 54t-55 22.5z" />
    <glyph glyph-name="2collayout" unicode="&#xe618;" 
d="M404 320h-220q-18 0 -31 -13t-13 -31v-220q0 -18 13 -31t31 -13h220q18 0 31 13t13 31v220q0 18 -13 31t-31 13zM393 68h-198v197h198v-198v1zM840 320h-220q-18 0 -31 -13t-13 -31v-220q0 -18 13 -31t31 -13h220q18 0 31 13t13 31v220q0 18 -13 31t-31 13zM828 68h-197
v197h197v-198v1zM404 756h-220q-18 0 -31 -13t-13 -31v-220q0 -18 13 -31t31 -13h220q18 0 31 13t13 31v220q0 18 -13 31t-31 13zM393 503h-198v197h198v-197v0zM840 756h-220q-18 0 -31 -13t-13 -31v-220q0 -18 13 -31t31 -13h220q18 0 31 13t13 31v220q0 18 -13 31t-31 13
zM828 503h-197v197h197v-197v0zM512 744q-12 0 -12 -12v-696q0 -12 12 -12t12 12v696q0 12 -12 12z" />
    <glyph glyph-name="check-s" unicode="&#xe672;" 
d="M226 638h482v-53h-482v53zM895 122q5 6 9 14q4 7 -3 14l-7 7q-6 6 -8 7q-8 6 -15 2t-14 -11q-18 -18 -35.5 -35t-33.5 -33q-5 -5 -12 -6.5t-11 4.5l-7 8l-11 11l-10 12q-6 7 -8 9q-4 3 -10.5 4.5t-12.5 -4.5l-4 -3q-3 -3 -6 -6.5t-6 -6.5l-4 -3q-12 -13 3 -29
q4 -5 13 -14q7 -8 16 -17q12 -13 17 -18q9 -10 15 -15q6 -6 17.5 -5.5t16.5 6.5q12 11 25 25q12 12 30 29q15 14 29.5 28.5t26.5 25.5v0v0v0zM788 279q36 0 67 -13.5t55 -37.5q24 -23 37.5 -54t13.5 -67t-14 -67q-13 -30 -37 -54t-55 -37t-67 -13t-68 13q-31 14 -55 37
q-23 23 -37 54q-14 32 -14 67q0 36 14 67t37 54q24 24 55 37q32 14 68 14v0zM226 531h482v-54h-482v54zM172 692h590v-268h-590v268zM65 44q0 -20 16 -34.5t38 -14.5h494q-34 51 -34 112q0 87 61 148t148 61q42 0 82 -17v125h-54v375h-697v-375h-54v-380zM65 44z" />
    <glyph glyph-name="sign" unicode="&#xe67a;" 
d="M771 -63h-575q-40 0 -68 28t-28 68v639q0 40 28 68t68 28h448q13 0 22.5 -9t9.5 -22.5t-9.5 -23t-22.5 -9.5h-448q-13 0 -22.5 -9t-9.5 -23v-639q0 -13 9.5 -22.5t22.5 -9.5h575q14 0 23 9.5t9 22.5v511q0 14 9.5 23t23 9t22.5 -9t9 -23v-511q0 -40 -28 -68t-68 -28v0z
M583.5 449q-13.5 0 -22.5 9t-9 22.5t9 22.5l318 318q9 9 22.5 9t22.5 -9.5t9 -22.5t-9 -22l-318 -318q-9 -9 -22.5 -9zM452 449h-192q-13 0 -22.5 9t-9.5 22.5t9.5 22.5t22.5 9h192q13 0 22.5 -9t9.5 -22.5t-9.5 -22.5t-22.5 -9zM644 257h-384q-13 0 -22.5 9t-9.5 22.5
t9.5 23t22.5 9.5h384q13 0 22.5 -9.5t9.5 -23t-9.5 -22.5t-22.5 -9z" />
    <glyph glyph-name="listsearch" unicode="&#xe67c;" 
d="M658 607q0 12 -8 20t-19 8h-387q-11 0 -19 -8t-8 -19.5t8 -19.5t19 -8h387q11 0 19 8t8 19v0zM945 150l-114 73q11 30 11 60q0 75 -53 127.5t-127 52.5t-127 -52.5t-53 -127t53 -127.5t127 -53q43 0 80.5 19.5t62.5 52.5l110 -71q7 -5 15 -5q15 0 23 13q6 10 3.5 21
t-11.5 17v0zM662 158q-52 0 -88.5 37t-36.5 88.5t36.5 88t88.5 36.5t88.5 -36.5t36.5 -88t-36.5 -88.5t-88.5 -37v0zM217 331q0 -11 8 -19t19 -8h171q3 28 13 54h-184q-11 0 -19 -8t-8 -19v0zM595 497h-351q-11 0 -19 -8t-8 -19.5t8 -19.5t19 -8h240q47 44 111 55v0zM748 88
q0 -20 -16 -34t-39 -14h-503q-23 0 -39 14t-16 34v592q0 20 16 34t39 14h503q23 0 39 -14t16 -34v-205q32 -14 59 -35v240q0 42 -33.5 71t-80.5 29h-503q-47 0 -80.5 -29t-33.5 -71v-592q0 -42 33.5 -71t80.5 -29h503q47 0 80.5 29t33.5 71v48q-27 -21 -59 -34v-14v0z" />
    <glyph glyph-name="gridcaretarrowup" unicode="&#xe636;" 
d="M512 625l392 -392q15 -15 15 -35t-15 -35t-35 -15t-35 15l-322 322l-322 -322q-15 -15 -35 -15t-35 15t-15 35t15 35z" />
    <glyph glyph-name="eye-c-o" unicode="&#xe67e;" horiz-adv-x="1026" 
d="M512.5 -65q-91.5 0 -175 35.5t-144 96t-96 143.5t-35.5 174.5t35.5 174.5t96 143.5t144 96t175 35.5t175 -35.5t144 -96t96 -143.5t35.5 -174.5t-35.5 -174.5t-96 -143.5t-144 -96t-175 -35.5zM513 786q-109 0 -202 -54t-146.5 -146.5t-53.5 -201t53.5 -201t146.5 -146.5
t202 -54t201.5 54t146.5 146.5t54 201t-54 201t-146.5 146.5t-201.5 54zM511.5 194q-54.5 0 -104 20t-80 47t-54 56.5t-32.5 46.5t-10 20q4 8 11.5 20.5t33.5 45t56 57t79 44.5t102.5 20t101.5 -20t79 -47.5t54 -56.5t33.5 -47t10.5 -20q-4 -8 -10.5 -20.5t-32 -44.5
t-55 -56.5t-79 -44.5t-104 -20zM512.5 501q-50.5 0 -83.5 -33.5t-33 -83t33 -83.5t83.5 -34t84 34t33.5 83.5t-33.5 83t-84 33.5zM513 314q-29 0 -49.5 21t-20.5 49.5t20.5 49t49.5 20.5t49.5 -20.5t20.5 -49t-20.5 -49.5t-49.5 -21z" />
    <glyph glyph-name="check-c-o" unicode="&#xe6ef;" 
d="M510 836q-91 0 -173.5 -35.5t-142.5 -95.5t-95.5 -142.5t-35.5 -173.5t35.5 -174t95.5 -142.5t142.5 -95t173.5 -35.5t174 35.5t142.5 95t95 142.5t35.5 174t-35.5 173.5t-95 142.5t-142.5 95.5t-174 35.5zM510 2q-105 0 -194 52t-141 141t-52 194t52 194t141 141t194 52
t194.5 -51.5t141 -141t51.5 -194t-52 -194t-141 -141.5t-194 -52zM732 613h-154q0 29 -20 49t-48 20t-48 -20t-20 -49h-154q-7 0 -12 -5t-5 -12v-444q0 -7 5 -12t12 -5h444q7 0 12 5t5 12v444q0 7 -5 12t-12 5zM510 647q14 0 24 -10t10 -24t-10 -24t-24 -10t-24 10t-10 24
t10 24t24 10zM715 169h-410v410h68v-51q0 -7 5 -12t12 -5h239q8 0 13 5t5 12v51h68v-410zM476 223l-110 127l31 31l79 -61l147 130l31 -32z" />
    <glyph glyph-name="seal" unicode="&#xe67f;" 
d="M587 218v193q62 26 101 83.5t39 128.5q0 95 -65.5 162t-158 67t-158.5 -67t-66 -162q0 -71 39 -128.5t102 -83.5v-193h-346v-138h858v138h-345zM75 -55h857v46h-857v-46z" />
    <glyph glyph-name="erpbox" unicode="&#xe6ae;" 
d="M793 373.5q-7 2.5 -31 2.5h-35l-15 -69h15q40 0 53 4.5t20.5 15.5t7.5 24q0 9 -4 14.5t-11 8zM568 371q-6 4 -28 4h-54l-14 -64h27q40 0 52 5q13 4 20.5 14.5t7.5 21.5q0 13 -11 19zM933 558q-1 3 -1 5q-3 11 -9 17l-154 206q-11 11 -27 11h-460q-16 0 -27 -11l-154 -206
q-6 -6 -9 -17q0 -2 -1 -5q0 -1 -0.5 -2.5t-0.5 -2.5v-481q0 -45 32.5 -77.5t78.5 -32.5h622q46 0 78.5 32.5t32.5 77.5v481q0 1 -0.5 2.5t-0.5 2.5zM298 720h428l77 -129h-582zM374 321l-8 -40h-124l-15 -65h139l-8 -41h-188l50 240h178l-8 -40h-129l-11 -54h124zM609.5 302
q-18.5 -20 -55.5 -25q10 -8 18 -22q17 -29 37 -80h-53q-6 21 -25 64q-10 23 -21 31q-8 5 -25 5h-20l-21 -100h-49l50 240h106q28 0 43.5 -5.5t24.5 -20.5t9 -36q0 -31 -18.5 -51zM850 320q-7 -17 -17.5 -27.5t-21.5 -15.5q-12 -6 -32 -8q-11 -2 -43 -2h-32l-19 -92h-50
l51 240h97q26 0 41 -6t24 -20t9 -34q0 -18 -7 -35z" />
    <glyph glyph-name="rulerpen-o" unicode="&#xe62e;" horiz-adv-x="1028" 
d="M80 675q-17 -19 -16 -40t16 -36q93 -90 184 -181q4 -4 10 -4t10 4q10 10 0 20q-20 21 -46 46l45 45q10 10 0 20t-20 0l-45 -45q-31 30 -65 64l102 101q10 10 0 20t-20 0l-102 -102l-11.5 11.5l-9 9t-6.5 6t-4.5 4l-1.5 1.5q-6 6 -7.5 15t7.5 21l141 141q18 18 35 1
q82 -92 181 -190q10 -10 19.5 0t-0.5 20q-105 105 -179 189q-21 18 -41 16.5t-35 -16.5l-141 -141v0zM677 155q-10 10 -20 0l-45 -45q-25 26 -43 44q-10 9 -20 -0.5t0 -19.5q115 -115 178 -183q15 -15 37 -15v0q24 0 39 15l141 142q13 13 13.5 32.5t-11.5 31.5l-189 189
q-10 10 -19.5 0t0.5 -20l188 -189q4 -4 3.5 -11.5t-5.5 -12.5l-141 -143q-6 -6 -19 -6v0q-10 0 -17 6q-4 5 -32 34l102 103q10 10 0 20t-20 0l-102 -102q-30 31 -63 65l45 45q10 10 0 20zM66 -61q4 -4 10 -4h4l281 84q4 1 6 4l481 483q0 1 1 2v1l103 103q13 12 13 30.5
t-13 31.5l-147 147q-12 12 -30.5 12t-31.5 -12l-105 -105q0 -1 -2 -3l-481 -481q-2 -3 -3 -6l-89 -273q-3 -8 3 -14v0zM649 686l29 -29l-437 -438l-48 11zM259 197l439 440l68 -69l-443 -437h-64v66zM818 516l-457 -460l-16 57l441 435zM174 205l57 -13v-75q0 -6 4 -10
t10 -4h74l17 -62l-238 -71zM763 801q4 4 11 4t11 -4l147 -147q5 -5 5 -11.5t-5 -11.5l-94 -94l-170 169z" />
    <glyph glyph-name="role" unicode="&#xe7c2;" 
d="M374.5 356q-57.5 0 -98.5 40.5t-41 98t41 98.5t98.5 41t98 -41t40.5 -98.5t-40.5 -98t-98 -40.5zM374 576q-34 0 -57.5 -24t-23.5 -57.5t23.5 -57.5t57.5 -24t58 24t24 57.5t-24 57.5t-58 24zM511 131l-24 149l-67 22l18 54l100 -33l30 -182zM237 131l-57 10l30 182
l100 33l18 -54l-67 -22zM622 579h111v-58h-111v58zM622 468h221v-57h-221v57zM622 358h221v-58h-221v58zM622 248h221v-58h-221v58zM374 82h276v-57h-276v57zM954 25h-249v57h192v604h-770v-604h192v-57h-249v719h884v-719z" />
    <glyph glyph-name="exc-c-2" unicode="&#xe675;" 
d="M512 748q-99 0 -183 -48.5t-132.5 -132.5t-48.5 -183t48.5 -183t132.5 -132.5t183 -48.5t183 48.5t132.5 132.5t48.5 183t-48.5 183t-132.5 132.5t-183 48.5zM512 153q-20 0 -34 13.5t-14 32.5t14 32.5t34 13.5t34 -13.5t14 -32.5t-14 -32.5t-34 -13.5zM560 353
q0 -19 -14 -32.5t-34 -13.5t-34 13.5t-14 32.5v216q0 19 14 32.5t34 13.5t34 -13.5t14 -32.5v-216z" />
    <glyph glyph-name="pad" unicode="&#xe6bd;" 
d="M796 832h-568q-31 0 -53 -22t-22 -53v-745q0 -31 22 -53.5t53 -22.5h568q31 0 53 22.5t22 53.5v745q0 31 -22 53t-53 22zM504.5 -33q-18.5 0 -31.5 13t-13 32t13 32t31.5 13t31.5 -13t13 -32t-13 -32t-31.5 -13zM817 97h-610v682h610v-682v0z" />
    <glyph glyph-name="treefolder-closed" unicode="&#xe688;" 
d="M926.5 590.5q-35.5 35.5 -85.5 35.5h-364v18q0 49 -35.5 85t-85.5 36h-173q-50 0 -85.5 -36t-35.5 -85v-520q0 -49 35.5 -85t85.5 -36h658q50 0 85.5 36t35.5 85v381q0 50 -35.5 85.5z" />
    <glyph glyph-name="reduce-c-o" unicode="&#xe635;" 
d="M512 -53q-89 0 -170 34.5t-139.5 93t-93 139.5t-34.5 170t34.5 170t93 139.5t139.5 93t170 34.5t170 -34.5t139.5 -93t93 -139.5t34.5 -170t-34.5 -170t-93 -139.5t-139.5 -93t-170 -34.5zM512 766q-104 0 -192 -51t-139 -139t-51 -192t51 -192t139 -139t192 -51t192 51
t139 139t51 192t-51 192t-139 139t-192 51zM266 384v0q0 11 8 19t20 8h436q12 0 20 -8t8 -19v0q0 -11 -8 -19t-20 -8h-436q-12 0 -20 8t-8 19z" />
    <glyph glyph-name="pass-s-o" unicode="&#xe682;" 
d="M874 680h-147q4 21 4 37q0 58 -41 99t-99.5 41t-99.5 -41t-41 -99q0 -16 5 -37h-148q-9 0 -15.5 -6.5t-6.5 -15.5v-141l-154 -342l-1 -1q-4 -8 -0.5 -17t11.5 -13l516 -231q9 -4 17.5 -0.5t12.5 11.5l95 210h92q9 0 15.5 6.5t6.5 15.5v502q0 9 -6.5 15.5t-15.5 6.5v0z
M591 812v0q39 0 67 -27q28 -28 28 -68q0 -41 -28 -67q-28 -28 -67.5 -28t-67.5 28q-9 9 -14 18v1h-1v1v0q-13 22 -13 47q0 39 28 67t68 28v0zM655 -37v0l-474 213l104 231v-251q0 -9 6.5 -15.5t15.5 -6.5h425l-77 -171v0zM851 179v0h-521v456h147q5 -8 14 -17
q42 -41 100 -41t99 41q9 8 15 17h145zM452 410v0q-12 11 -27.5 11t-26.5 -11t-11 -26.5t11 -26.5l112 -112l2 -2q11 -10 26.5 -10t26.5 10l227 227q11 11 11 27t-11 27q-10 11 -26 11t-27 -11l-201 -201zM591 751q14 0 23.5 -10t9.5 -24t-9.5 -24t-23.5 -10t-24 10t-10 24
t10 24t24 10v0z" />
    <glyph glyph-name="setting" unicode="&#xe683;" 
d="M910 610l-46 -46q-36 -36 -88 -36t-88.5 36.5t-36.5 88t36 88.5q21 20 46 45q20 19 8 36t-45 12q-74 -11 -126 -64q-42 -42 -58 -97.5t-4 -111.5l-383 -383q-37 -37 -37 -88.5t36.5 -88t88.5 -36.5t88 36l383 383q56 -11 112 5t98 57q52 53 64 127q5 33 -12 45t-36 -8z
M242.5 60q-12.5 -12 -29.5 -12t-29.5 12t-12.5 29.5t12.5 29.5t29.5 12t29.5 -12t12.5 -29.5t-12.5 -29.5zM201 602l144 -144l59 59l-144 144l-33 62l-103 73l-59 -58l74 -104zM684 296q-7 6 -15.5 6t-14.5 -6l-88 -88q-6 -6 -6 -15t6 -15l208 -208q24 -24 59 -24t59 24
t24 58.5t-24 59.5z" />
    <glyph glyph-name="close-s" unicode="&#xe76a;" 
d="M62 834v-900h900v900h-900zM710 134l-194 194l-189 -189l-54 54l189 191l-195 194l56 56l194 -196l191 191l54 -54l-191 -191l195 -194z" />
    <glyph glyph-name="map-o" unicode="&#xe665;" 
d="M923.5 752q-14.5 11 -32.5 6l-249 -72l-250 72v0v0h-1.5t-1 0.5l-0.5 0.5h-1.5h-1h-1h-1h-1.5h-1h-1h-1h-1h-1h-1h-1l-1 -0.5t-1.5 -0.5h-0.5h-0.5h-0.5l-260 -75q-11 -4 -18.5 -13.5t-7.5 -22.5v-601q0 -19 14 -30q10 -7 22 -7q6 0 11 1l249 72l250 -72v0v0h2l1 -0.5
l1 -0.5h2h0.5h0.5h3v0h3h1h1q1 0 1.5 0.5t1.5 0.5h1h0.5h0.5l260 75q11 4 18.5 13.5t7.5 22.5v601q0 19 -14.5 30zM345 148l-186 -54v526l186 54v-526zM419 674l186 -54v-526l-186 54v526zM865 148l-186 -54v526l186 54v-526z" />
    <glyph glyph-name="move" unicode="&#xe68b;" 
d="M960 384l-168 167v-114h-227v227h114l-167 168l-167 -168h114v-227h-228v114l-167 -167l167 -167v114h228v-227h-114l167 -168l167 168h-114v227h227v-114z" />
    <glyph glyph-name="2arrow-down" unicode="&#xe606;" 
d="M479 328q14 -14 34 -14t34 14l346 337q14 13 14 33t-14 33.5t-34 13.5t-34 -14l-312 -303l-311 303q-15 14 -35 14t-34 -13.5t-14 -33.5t14 -33zM825 439l-312 -303l-311 303q-15 14 -35 14t-34 -13.5t-14 -33.5t14 -34l346 -336q14 -14 34 -14t34 14l346 336
q14 14 14 34t-14 33.5t-34 13.5t-34 -14z" />
    <glyph glyph-name="2arrow-right" unicode="&#xe60b;" 
d="M568 351q14 14 14 34t-14 34l-337 346q-13 14 -33 14t-33.5 -14t-13.5 -34t14 -34l303 -312l-303 -311q-14 -15 -14 -35t13.5 -34t33.5 -14t33 14zM457 697l303 -312l-303 -311q-14 -15 -14 -35t13.5 -34t33.5 -14t34 14l336 346q14 14 14 34t-14 34l-336 346
q-14 14 -34 14t-33.5 -14t-13.5 -34t14 -34z" />
    <glyph glyph-name="arrow-c-o-left" unicode="&#xe684;" 
d="M511 830q-91 0 -174 -35.5t-143 -95.5t-95.5 -143t-35.5 -174t35.5 -174t95.5 -143t143 -95.5t174 -35.5t174 35.5t143 95.5t95.5 143t35.5 174t-35.5 174t-95.5 143t-143 95.5t-174 35.5zM510.5 -10q-106.5 0 -196.5 52.5t-142.5 142.5t-52.5 197t52.5 197t142.5 142.5
t196.5 52.5t197 -52.5t143 -142.5t52.5 -197t-52.5 -197t-143 -142.5t-197 -52.5zM638 621q-8 8 -20 8t-20 -8l-214 -214q-10 -10 -7 -25q-3 -15 7 -25l214 -214q8 -8 20 -8t20 8t8 19.5t-8 19.5l-200 200l200 199q8 9 8 20.5t-8 19.5z" />
    <glyph glyph-name="plus" unicode="&#xe763;" 
d="M449 824h126v-880h-126v880zM72 447h880v-126h-880v126z" />
    <glyph glyph-name="arrow-c-o-right" unicode="&#xe685;" 
d="M513 -62q91 0 174 35.5t143 95.5t95.5 143t35.5 174t-35.5 174t-95.5 143t-143 95.5t-174 35.5t-174 -35.5t-143 -95.5t-95.5 -143t-35.5 -174t35.5 -174t95.5 -143t143 -95.5t174 -35.5zM513.5 778q106.5 0 196.5 -52.5t142.5 -142.5t52.5 -197t-52.5 -197
t-142.5 -142.5t-196.5 -52.5t-197 52.5t-143 142.5t-52.5 197t52.5 197t143 142.5t197 52.5zM386 147q8 -8 20 -8t20 8l214 214q10 10 7 25q3 15 -7 25l-214 214q-8 8 -20 8t-20 -8t-8 -19.5t8 -19.5l200 -200l-200 -199q-8 -9 -8 -20.5t8 -19.5z" />
    <glyph glyph-name="arrow-c-o-down" unicode="&#xe687;" 
d="M66 383q0 -91 35.5 -174t95.5 -143t143 -95.5t174 -35.5t174 35.5t143 95.5t95.5 143t35.5 174t-35.5 174t-95.5 143t-143 95.5t-174 35.5t-174 -35.5t-143 -95.5t-95.5 -143t-35.5 -174zM906 382.5q0 -106.5 -52.5 -196.5t-142.5 -142.5t-197 -52.5t-197 52.5
t-142.5 142.5t-52.5 196.5t52.5 197t142.5 143t197 52.5t197 -52.5t142.5 -143t52.5 -197zM275 510q-8 -8 -8 -20t8 -20l214 -214q10 -10 25 -7q15 -3 25 7l214 214q8 8 8 20t-8 20t-19.5 8t-19.5 -8l-200 -200l-199 200q-9 8 -20.5 8t-19.5 -8z" />
    <glyph glyph-name="list-s-o" unicode="&#xe746;" 
d="M62 -66v886h886v-886h-886zM892 764h-774v-774h774v774zM726 543h-442v55h442v-55zM726 377h-442v56h442v-56zM726 211h-442v56h442v-56z" />
    <glyph glyph-name="cloud-o-down" unicode="&#xe673;" 
d="M943 451q-16 39 -45.5 68.5t-68.5 46.5q-10 4 -20 7q-31 72 -91 121q-43 35 -95 54q-53 20 -111 20q-57 0 -110 -19q-52 -19 -94 -54q-62 -50 -94 -124q-48 -18 -85 -53q-64 -64 -64 -152q0 -47 20 -89q18 -40 51 -70q50 -44 116 -57q6 -2 13 -2v0v0h0.5h0.5
q19 0 32 13.5t13 32t-13 32t-32 13.5h-0.5h-0.5v1q-47 11 -78 46t-31 80q0 50 37.5 87t91.5 41q17 79 80.5 131t146.5 52q84 0 147.5 -52.5t80.5 -133.5q3 1 5 1q51 0 87.5 -36.5t36.5 -88.5q0 -47 -31 -82t-77 -41v-1q-19 0 -32 -13t-13 -32t13 -32t32 -14v0h0.5h0.5
q4 1 7 1q31 4 60 16q39 16 68.5 46t45.5 68q17 40 17 84t-17 84zM353 145l122 -122q14 -14 33 -13q19 -1 32 13l122 122q13 12 13 30t-13 30v0q-13 13 -30.5 13t-30.5 -13l-48 -48v204q0 18 -13 30.5t-30 12.5v0q-18 0 -30.5 -12.5t-12.5 -30.5v-207v-1l-53 52
q-12 13 -30 13t-31 -13v0q-12 -12 -12 -30t12 -30z" />
    <glyph glyph-name="nodata-2" unicode="&#xe68c;" 
d="M825 241q45 0 76.5 -30.5t31.5 -73t-31.5 -73t-76 -30.5t-76.5 30.5t-32 73t32 73t76 30.5v0zM805 495h-72v-230q33 22 72 27v203zM933 617v-82v0v-281q-31 26 -72 35v328h72zM92 34h72v461h-72v-461zM220 34h72v583h-72v-583zM420 495h-72v-461h72v461zM549 555h-72
v-521h72v521zM677 754h-72v-720h72v40q-14 30 -14 63.5t14 63.5v553zM786 194l-19 -19l39 -37l-39 -38l19 -19l39 38l39 -38l20 19l-39 38l39 37l-20 19l-39 -38z" />
    <glyph glyph-name="file-s" unicode="&#xe642;" 
d="M282 200q0 -10 7.5 -16t17 -6t15.5 5q8 7 8 18v285h-48v-286v0zM367 200q0 -10 -3 -21l-1 -2h346q9 0 16 7t7 16v397h-365v-397zM456 528h198q8 0 13.5 -5.5t5.5 -13.5t-5.5 -13.5t-13.5 -5.5h-198q-8 0 -13.5 5.5t-5.5 13.5t5.5 13.5t13.5 5.5zM456 413h140
q8 0 13.5 -5.5t5.5 -13.5t-5.5 -13.5t-13.5 -5.5h-140q-8 0 -13.5 5.5t-5.5 13.5t5.5 13.5t13.5 5.5zM456 297h166q8 0 13.5 -5.5t5.5 -13.5t-5.5 -13.5t-13.5 -5.5h-166q-8 0 -13.5 5.5t-5.5 13.5t5.5 13.5t13.5 5.5zM896 834h-768q-27 0 -46.5 -19.5t-19.5 -46.5v-768
q0 -27 19.5 -46.5t46.5 -19.5h768q27 0 46.5 19.5t19.5 46.5v768q0 27 -19.5 46.5t-46.5 19.5zM770 200q0 -24 -18 -43q-19 -18 -43 -18h-402q-25 0 -43 17l-1 2q-18 17 -18 42v304q0 8 5.5 13.5t13.5 5.5h66v93q0 8 5.5 13t12.5 5h403q8 0 13.5 -5t5.5 -13v-416z" />
    <glyph glyph-name="2arrow-up" unicode="&#xe607;" 
d="M545 440q-14 14 -34 14t-34 -14l-346 -337q-14 -13 -14 -33t14 -33.5t34 -13.5t34 14l312 303l311 -303q15 -14 35 -14t34 13.5t14 33.5t-14 33zM199 329l312 303l311 -303q15 -14 35 -14t34 13.5t14 33.5t-14 34l-346 336q-14 14 -34 14t-34 -14l-346 -336
q-14 -14 -14 -34t14 -33.5t34 -13.5t34 14z" />
    <glyph glyph-name="notification" unicode="&#xe9cc;" 
d="M203 260l54 -75v-201q0 -20 14 -34t34 -14h134q20 0 34 14t14 34l-55 201l31 48q-113 23 -193 23q-35 0 -67 4zM345 335q112 -10 254 -48t240.5 -76.5t120.5 -59.5v681q-43 -37 -247 -102t-368 -81v-314zM242 340v305q-51 -4 -88 -20.5t-55.5 -40.5t-26.5 -47t-8 -46
q0 -24 8 -47t26 -46t55 -38.5t89 -19.5z" />
    <glyph glyph-name="piechart" unicode="&#xe6f0;" 
d="M575 432v402q109 0 201.5 -54t146.5 -146.5t54 -201.5h-402zM918 343h-2q-7 -103 -62 -188t-144 -134.5t-193 -49.5q-109 0 -201.5 54t-146 146.5t-53.5 201.5q0 104 49 193t134.5 144t187.5 62v1h60v-372h372v-58h-1zM486 343v370q-131 -12 -221.5 -109.5t-90.5 -230.5
q0 -93 46 -172t124.5 -124.5t171.5 -45.5q134 0 231.5 90t108.5 222h-370zM486 343z" />
    <glyph glyph-name="cloud-o-up" unicode="&#xe6ac;" 
d="M64 364q0 69 42.5 124.5t106.5 73.5q36 91 118 148t183 57q102 0 182.5 -56.5t116.5 -148.5q66 -19 107.5 -74t41.5 -124q0 -87 -61 -147.5t-149 -60.5q-17 0 -29.5 12.5t-12.5 28.5q0 19 12.5 30.5t29.5 11.5q53 0 90 36.5t37 88.5q0 58 -44 93l-8 7q-2 3 -9 7
q-1 2 -5 3t-5 2h-3q-1 2 -3.5 3t-3.5 2h-2q-1 0 -3.5 1.5t-4.5 1.5q-5 0 -5 2h-7q-4 0 -7 3h-20q-5 18 -5 22q-2 0 -2 4q-1 3 -2.5 8t-2.5 7q0 1 -1 2.5t-1 2.5q-3 5 -8 15v5q-1 2 -4.5 7t-5.5 7q-31 52 -85.5 83.5t-117.5 31.5q-65 0 -119.5 -31t-85.5 -84l-7 -14
q0 -1 -1 -2t-1 -2l-1 -1l-7 -15v-5l-7 -15v-4q-6 -17 -6 -22h-22q-2 -3 -7 -3h-4q-3 -2 -4 -2q-1 -1 -2 0q-1 0 -3.5 -1.5t-3.5 -1.5h-5q-1 -1 -3.5 -2t-3.5 -3h-3q-1 -1 -3.5 -2t-3.5 -3h-2q-1 0 -8 -7q-2 -1 -10 -7q-41 -33 -41 -93q0 -52 36.5 -88.5t87.5 -36.5
q20 0 32 -11.5t12 -30.5q0 -16 -12.5 -28.5t-31.5 -12.5q-86 0 -148 61t-62 147v0v0zM346 224q0 14 9 30l128 139q12 12 31 12q17 0 32 -12l125 -139q12 -13 12 -30t-12.5 -29t-31.5 -12q-15 0 -29 14l-54 59v-210q0 -19 -12 -30.5t-30 -11.5t-29.5 11.5t-11.5 30.5v210
l-54 -59q-14 -14 -32 -14q-16 0 -28.5 12.5t-12.5 28.5z" />
    <glyph glyph-name="close" unicode="&#xe76b;" 
d="M940 40l-344 344l344 344q18 18 18 42.5t-17.5 42t-42 17.5t-42.5 -18l-344 -344l-345 344q-17 18 -41.5 18t-42 -17.5t-17.5 -42t18 -42.5l344 -344l-344 -345q-18 -17 -18 -41.5t17.5 -42t42 -17.5t41.5 18l345 344l344 -344q18 -18 42.5 -18t42 17.5t17.5 42t-18 41.5
v1z" />
    <glyph glyph-name="correct" unicode="&#xe677;" 
d="M937 774q-96 -59 -188 -129.5t-163 -137.5t-120 -118t-89 -99l-217 171l-97 -78l377 -382q34 87 106 207t184 262t230 251z" />
    <glyph glyph-name="histogram-s-o-2" unicode="&#xe6fa;" 
d="M125 69v616h-58v-673h901v57h-843v0zM686 460h-119v-332h119v332zM853 627h-119v-499h119v499zM520 569h-119v-441h119v441v0zM351 355h-119v-227h119v227v0zM351 355z" />
    <glyph glyph-name="4square-2" unicode="&#xe691;" horiz-adv-x="1027" 
d="M352 746q24 0 41 -17t17 -41v-231q0 -25 -17 -42t-41 -17h-232q-24 0 -40.5 17t-16.5 42v231q0 25 16.5 41.5t40.5 16.5h232zM352 282q24 0 41 -16.5t17 -40.5v-233q0 -24 -17 -40.5t-41 -16.5h-232q-24 0 -40.5 16.5t-16.5 40.5v233q0 24 16.5 40.5t40.5 16.5h232z
M816 282q24 0 41 -16.5t17 -40.5v-233q0 -24 -17 -40.5t-41 -16.5h-231q-25 0 -42 16.5t-17 40.5v233q0 24 17 40.5t42 16.5h231zM945 644q19 -19 19 -44t-19 -42l-172 -173q-19 -18 -43.5 -18t-42.5 18l-173 173q-18 17 -18 42t18 44l173 172q18 18 42.5 18t43.5 -18z
M945 644z" />
    <glyph glyph-name="sunny" unicode="&#xe774;" 
d="M864 352v64h128v-64h-128zM738 656l91 90l45 -45l-90 -91zM512 128q-106 0 -181 75t-75 181t75 181t181 75t181 -75t75 -181t-75 -181t-181 -75zM512 576q-80 0 -136 -56t-56 -136t56 -136t136 -56t136 56t56 136t-56 136t-136 56zM480 864h64v-128h-64v128zM150 701
l45 45l91 -90l-46 -46zM160 352h-128v64h128v-64zM286 112l-91 -90l-45 45l90 91zM544 -96h-64v128h64v-128zM874 67l-45 -45l-91 91l46 45z" />
    <glyph glyph-name="link" unicode="&#xe6fe;" 
d="M336 208q8 -8 19 -8t19 8l320 323q8 8 8 19t-7.5 19t-18.5 8t-19 -8l-321 -323q-8 -8 -8 -19t8 -19zM485 265q14 -62 -30 -107l-107 -103q-35 -35 -84.5 -35t-84.5 34.5t-35 84t35 84.5l104 108q35 35 85 35q14 0 31 -5l42 41q-35 17 -73 17q-72 0 -122 -51l-104 -107
q-51 -51 -51 -122t50.5 -121.5t122 -50.5t121.5 50l107 104q38 38 47 88.5t-12 97.5zM888.5 763.5q-50.5 50.5 -122 50.5t-121.5 -50l-107 -103q-39 -40 -48 -95t15 -102l41 41q-9 30 -1.5 62t30.5 56l107 103q35 35 84.5 35t84.5 -34.5t35 -84t-35 -84.5l-107 -107
q-35 -35 -84 -35q-19 0 -23 1l-42 -42q28 -12 65 -12q71 0 122 51l106 107q51 50 51 121t-50.5 121.5z" />
    <glyph glyph-name="eye" unicode="&#xe692;" 
d="M512 658q-56 0 -107.5 -15t-89 -39t-70 -54t-53 -58t-36 -53.5t-22 -39t-6.5 -15.5q2 -6 6.5 -15.5t21.5 -38t36.5 -54.5t53 -58t70.5 -54.5t88.5 -38t107.5 -15.5q44 0 85.5 9t74 25t62 36.5t51.5 43.5t41 45.5t31.5 43t21.5 36.5t13 26l4 9q-2 6 -6.5 15.5t-21.5 38
t-36.5 54.5t-53 58t-70.5 54.5t-88.5 38t-107.5 15.5v0zM512 219q-68 0 -116.5 48.5t-48.5 116.5t48.5 116.5t116.5 48.5t116.5 -48.5t48.5 -116.5t-48.5 -116.5t-116.5 -48.5v0zM594 384q0 -34 -24 -58t-58 -24t-58 24t-24 58t24 58t58 24t58 -24t24 -58v0zM594 384z" />
    <glyph glyph-name="eye-o" unicode="&#xe69c;" 
d="M849 452l-47 48l105 105l48 -48zM522 -4q-38 0 -84.5 14.5t-99.5 45t-109 88t-102 132.5q42 72 95 127t105.5 86.5t100 47t89.5 15.5q38 0 75 -10.5t85.5 -38.5t105.5 -85t119 -142q-59 -86 -114 -144.5t-103 -86.5t-85.5 -38.5t-77.5 -10.5zM517 495q-35 0 -73 -11
t-81 -35.5t-89.5 -70t-89.5 -107.5q45 -62 94.5 -107.5t93.5 -68t79.5 -32.5t65.5 -10t65.5 10t80 33.5t92.5 70t90 109.5q-78 110 -166 164.5t-162 54.5zM511.5 136q-58.5 0 -99.5 41t-41 99.5t41 99.5t99.5 41t99.5 -41t41 -99.5t-41 -99.5t-99.5 -41zM511.5 360
q-34.5 0 -59 -24.5t-24.5 -59t24.5 -59t59 -24.5t59 24.5t24.5 59t-24.5 59t-59 24.5zM480 771h68v-172h-68v172zM69 556l47 48l104 -107l-47 -49z" />
    <glyph glyph-name="qian" unicode="&#xe69e;" 
d="M542 577q18 0 71 -38q126 -93 260 -126q33 -12 27 -45q-9 -29 -42 -20q-164 50 -286 143q-24 18 -27 18q-6 0 -21 -15q-119 -105 -310 -161q-30 -9 -42 15q-6 29 24 41q167 48 289 153q39 35 57 35zM324 664h176q24 -3 27 -30q-3 -27 -27 -27h-95q15 -33 23 -59
q0 -30 -23 -39q-27 -3 -36 24q-15 51 -24 74h-48q-6 -9 -9 -12q-27 -48 -45 -68q-26 -33 -50 -18q-21 21 3 53q38 51 89 153q12 27 36 18q27 -9 18 -36q-3 -9 -9 -21q-6 -6 -6 -12zM679 88h140q27 0 27 -30t-27 -33h-570q-29 3 -32 33q3 30 32 30h406q-30 12 -9 42
q60 92 84 179q9 27 36 21q27 -9 21 -39q-27 -99 -90 -191q-15 -12 -18 -12zM324 309q48 -54 98 -149q12 -30 -5 -48q-27 -12 -42 15q-60 102 -93 146q-18 21 0 36q21 18 42 0zM679 354h-259q-30 0 -30 26.5t30 29.5h259q24 -3 27 -30q-3 -26 -27 -26zM521 312
q30 -72 51 -161q3 -30 -21 -36q-27 -3 -33 27q-18 80 -45 146q-12 24 9 36q27 12 39 -12zM631 664h224q24 -3 27 -30q-3 -30 -27 -30h-125q18 -32 30 -62q3 -30 -21 -39q-24 -6 -36 24q-24 59 -36 77h-62l-12 -12q-21 -27 -48 -12q-18 18 0 48q30 48 45 87q12 24 35 15
q27 -12 18 -36q-6 -21 -12 -30z" />
    <glyph glyph-name="widgetab" unicode="&#xe6f2;" 
d="M858 407h-63v170q0 35 -25 60t-60 25h-170v63q0 44 -31 75t-75 31t-75 -31t-31 -75v-63h-169q-35 0 -60 -25t-25 -60v-161h63q48 0 81.5 -33.5t33.5 -81t-33.5 -81t-81.5 -33.5h-63v-161q0 -35 25 -60t60 -25h161v63q0 48 33.5 81.5t81 33.5t81 -33.5t33.5 -81.5v-63h161
q35 0 60 25t25 60v169h63q44 0 75 31t31 75t-31 75t-75 31zM475 156q-91 0 -155.5 64.5t-64.5 155.5t64.5 155.5t155.5 64.5q52 0 97.5 -23t76.5 -62q4 -5 4 -11q0 -2 -1 -4.5t-2 -3.5l-1 -2l-201 -196q-3 -2 -6 -2l-5 2l-74 73q-4 3 -4 8q0 10 10 10q5 0 8 -3l60 -60
q3 -3 5 -3l6 3l183 179q-28 35 -68.5 55t-87.5 20q-83 0 -141.5 -58.5t-58.5 -141.5t58.5 -141.5t141.5 -58.5t141.5 58.5t58.5 141.5q0 11 -1 22v2v1v0q1 9 10 9t10 -9v0q1 -13 1 -25q0 -91 -64.5 -155.5t-155.5 -64.5z" />
    <glyph glyph-name="rmb-s" unicode="&#xe6a0;" 
d="M812 620q0 13 -11 21l-274 181q-15 11 -30 0l-274 -181q-11 -8 -11 -21v-641q0 -11 7.5 -18.5t17.5 -7.5h549q11 0 18.5 7.5t7.5 18.5v641zM464 659q20 20 48 20t48 -20t20 -48t-20 -48t-48 -20t-48 20t-20 48t20 48zM632 309v-51h-88v-28h88v-52h-88v-63h-65v63h-87v52
h87v28h-87v51h61l-72 147h71l47 -99q9 -19 13 -33q4 15 12 33l48 99h71l-73 -147h62z" />
    <glyph glyph-name="link-off" unicode="&#xe6ff;" 
d="M164 550h144q9 0 15 -6.5t6 -15.5v0q0 -8 -5.5 -13t-15.5 -5h-144q-8 0 -13.5 5t-5.5 13v0q0 9 5.5 15.5t13.5 6.5v0zM257 697l102 -102q6 -6 6 -14.5t-6 -14.5v0q-6 -6 -15 -6t-15 6l-101 104q-6 6 -6 14.5t6 12.5v0q6 6 14.5 6t14.5 -6v0zM412 766v-147
q0 -8 -5.5 -13.5t-13.5 -5.5v0q-8 0 -14.5 5.5t-6.5 13.5v147q0 8 6.5 13.5t14.5 5.5v0q8 0 13.5 -5.5t5.5 -13.5v0zM892 240h-144q-8 0 -13 5.5t-5 13.5v0q0 8 5 14.5t13 6.5h144q8 0 15 -6.5t7 -14.5v0q0 -8 -6.5 -13.5t-15.5 -5.5v0zM802 91l-105 101q-6 6 -6 15t6 15v0
q6 6 15 6t15 -6l101 -102q6 -6 6 -14.5t-6 -14.5v0q-13 -14 -26 0v0zM644 24v144q0 9 6 15.5t15 6.5v0q8 0 13.5 -7t5.5 -15v-144q0 -8 -5.5 -14.5t-13.5 -6.5v0q-9 0 -15 6.5t-6 14.5v0zM327 240l328 328q8 8 21 8t21 -8v0q8 -8 8 -21t-8 -21l-328 -328q-8 -8 -20 -8t-22 8
v0q-8 10 -8 22t8 20v0zM561 598l104 104q38 35 92 40.5t90 -27.5l16 -16q33 -37 28 -91.5t-41 -89.5l-104 -104q-28 -28 -69.5 -35.5t-77.5 8.5l-35 -37q44 -31 99 -25t93 46l136 133q46 46 46 110.5t-46 108.5l-18 22q-46 46 -110.5 46t-108.5 -46l-136 -137
q-35 -32 -43 -82t11 -91l37 37q-8 32 2.5 67t34.5 59v0zM463 171l-104 -107q-36 -35 -90 -40t-92 29l-16 16q-33 36 -27.5 90t40.5 89l104 107q28 28 70.5 35.5t76.5 -8.5l38 34q-46 30 -100.5 25t-94.5 -43l-136 -136q-46 -46 -46 -110.5t46 -108.5l21 -22
q44 -44 108.5 -44t110.5 44l133 137q36 35 44.5 83t-12.5 90l-37 -37q8 -33 -2 -66t-35 -57v0z" />
    <glyph glyph-name="shang-s" unicode="&#xe6a1;" 
d="M826.5 165q-8.5 10 -31.5 10h-295v238h252q22 0 30 10.5t8 29.5t-9 29t-31 10h-250v166q0 23 -10 31t-31 8t-30 -8t-9 -31v-483h-184q-23 0 -31.5 -10t-8.5 -30q0 -19 9 -29t31 -10h559q21 0 30.5 10t9.5 29q0 20 -8.5 30zM896 -66h-768q-27 0 -46.5 19.5t-19.5 46.5v768
q0 27 19.5 46.5t46.5 19.5h768q27 0 46.5 -19.5t19.5 -46.5v-768q0 -27 -19.5 -46.5t-46.5 -19.5z" />
    <glyph glyph-name="xia-s" unicode="&#xe6a6;" 
d="M822 650q-8 10 -30 10h-553q-22 0 -30 -10t-8 -28.5t8 -29t30 -10.5h220v-472q0 -24 10 -31.5t31 -7.5q17 0 28 7.5t11 31.5v304q42 -30 83 -61t73 -58q13 -11 22 -17t16.5 -7.5t14.5 2t16 10.5q18 18 16 33.5t-29 38.5q-23 18 -49 38q-26 21 -54 41q-28 21 -55 40
q-28 19 -54 36v72h253q22 0 30 10.5t8 29t-8 28.5zM184 -66q-35 0 -60.5 13.5t-38 34.5t-18 39.5t-5.5 34.5v656q0 16 1 27t7 31t18 32t36.5 22t59.5 10h656q16 0 27 -1t31 -7t32 -18t22 -36.5t10 -59.5v-656q0 -16 -1 -27t-7 -31t-18 -32t-36.5 -22t-59.5 -10h-656z" />
    <glyph glyph-name="box-2" unicode="&#xe616;" 
d="M529 372l-1 -414l357 209v413zM512 405l354 208l-354 206l-354 -206zM492 374l-353 206v-413l352 -206z" />
    <glyph glyph-name="pass-o" unicode="&#xe6a7;" 
d="M349 428q-9 10 -22.5 10t-23 -9.5t-9.5 -23t9 -22.5l135 -138q9 -10 23 -10v0q13 0 23 9l257 254q9 10 9.5 23.5t-9 23t-23 9.5t-23.5 -9l-234 -231zM876 707l-353 122q-11 4 -22 0l-353 -122q-22 -7 -22 -30v-376q2 -45 23.5 -89.5t52 -78t72 -66t76 -53t72.5 -39.5
t53 -25.5t25 -10.5q6 -2 12 -2t12 2q10 4 25 10.5t53 25.5t72.5 39.5t76 53t72 66.5t52 78.5t23.5 89.5v375q0 23 -22 30zM833 304q-2 -45 -31.5 -90t-67 -77t-87.5 -62.5t-79.5 -44.5t-55.5 -25q-34 13 -71 32t-82 49t-80.5 62t-60.5 73t-27 81v351l321 111l321 -111v-349z
" />
    <glyph glyph-name="arrow-down" unicode="&#xe609;" 
d="M512 143l-392 392q-15 15 -15 35t15 35t35 15t35 -15l322 -322l322 322q15 15 35 15t35 -15t15 -35t-15 -35z" />
    <glyph glyph-name="arrow-right" unicode="&#xe611;" 
d="M753 384l-392 -392q-15 -15 -35 -15t-35 15t-15 35t15 35l322 322l-322 322q-15 15 -15 35t15 35t35 15t35 -15z" />
    <glyph glyph-name="arrow-left" unicode="&#xe612;" 
d="M271 384l392 392q15 15 35 15t35 -15t15 -35t-15 -35l-322 -322l322 -322q15 -15 15 -35t-15 -35t-35 -15t-35 15z" />
    <glyph glyph-name="box" unicode="&#xe613;" horiz-adv-x="1025" 
d="M893 557h-762q-14 0 -24 -10t-10 -25v-519q0 -14 10 -24t24 -10h762q14 0 24 10t10 24v519q0 15 -10 25t-24 10zM605.5 394.5q-10.5 -10.5 -24.5 -10.5h-138q-14 0 -24.5 10.5t-10.5 24.5t10.5 24t24.5 10h138q14 0 24.5 -10t10.5 -24t-10.5 -24.5zM951.5 789
q-10.5 10 -24.5 10h-830q-14 0 -24.5 -10t-10.5 -24v-139q0 -14 10.5 -24t24.5 -10h830q14 0 24.5 10t10.5 24v139q0 14 -10.5 24z" />
    <glyph glyph-name="triangle-right" unicode="&#xe61c;" 
d="M707 417l-325 324q-13 14 -32 14t-33 -14t-14 -33v-648q0 -19 14 -33t33 -14t32 14l325 324q14 14 14 33t-14 33z" />
    <glyph glyph-name="histogram-s-o" unicode="&#xe626;" horiz-adv-x="1025" 
d="M940 701q-22 22 -53 22h-750q-31 0 -53 -22t-22 -53v-570q0 -31 22 -53t53 -22h750q31 0 53 22t22 53v570q0 31 -22 53zM902 78q0 -6 -4.5 -10.5t-10.5 -4.5h-750q-6 0 -10.5 4.5t-4.5 10.5v570q0 6 4.5 10.5t10.5 4.5h750q6 0 10.5 -4.5t4.5 -10.5v-570zM182 303h120
v-180h-120v180zM362 543h120v-420h-120v420zM542 423h120v-300h-120v300zM722 603h120v-480h-120v480z" />
    <glyph glyph-name="book" unicode="&#xe62a;" horiz-adv-x="1025" 
d="M921 596q-11 14 -30 22q1 -18 -3 -29l-152 -500q-4 -14 -17.5 -21.5t-28.5 -7.5h-467q-61 0 -73 35q-5 14 0 22q6 8 19 8h441q47 0 65 17.5t36 77.5l139 459q11 37 -9.5 65.5t-57.5 28.5h-386q-6 0 -25 -4v1q-14 3 -24 3t-18.5 -6t-13.5 -12t-9.5 -16t-8 -18.5t-8 -17.5
t-8.5 -16q-3 -4 -8.5 -10.5t-9 -11.5t-4.5 -9q-1 -5 1 -13.5t2 -12.5q-2 -20 -14 -49.5t-22 -42.5q-2 -3 -11 -11.5t-11 -15.5q-2 -2 -0.5 -14t1.5 -16q-2 -17 -12.5 -45.5t-21.5 -46.5q-2 -3 -9 -12t-8 -14q-1 -4 0 -14.5t0 -15.5q-4 -19 -15.5 -46t-22.5 -46
q-3 -5 -8.5 -12t-8.5 -12t-4 -11q-1 -3 1.5 -10t1.5 -11q-1 -7 -2.5 -18.5t-1.5 -13.5q-11 -30 1 -64q15 -40 51 -67t75 -27h468q33 0 62 22t39 54l139 459q11 37 -9 66zM382 595l10 32q2 7 8.5 11.5t13.5 4.5h308q7 0 10 -4.5t1 -11.5l-11 -32q-2 -7 -8.5 -11.5t-12.5 -4.5
h-308q-7 0 -10 4.5t-1 11.5zM340 465l10 32q2 7 8.5 12t13.5 5h308q7 0 10 -5t1 -12l-11 -32q-2 -7 -8.5 -11.5t-12.5 -4.5h-308q-7 0 -10 4.5t-1 11.5z" />
    <glyph glyph-name="bookmark-o" unicode="&#xe631;" 
d="M858 778q-11 16 -29 23q-12 5 -25 5v0h-584q-13 0 -25 -5q-18 -7 -29 -23t-11 -35v-718q0 -19 11 -35t29 -23q12 -5 25 -5q26 0 46 19l246 236l246 -236q19 -18 46 -18q14 0 25 4q18 7 29 23t11 35v718q0 19 -11 35zM798 42l-286 274l-50 -48l-236 -226v692h572v-692v0z
" />
    <glyph glyph-name="leaf" unicode="&#xe62d;" 
d="M777.5 323.5q-33.5 11.5 -61 11t-55.5 -9.5t-46.5 -20t-36 -25t-23.5 -19.5t-9 -8.5q24 64 35 133l8 -1q8 -1 21.5 -2t31.5 -0.5t38 4.5t40 11t38.5 21.5t32.5 34t23.5 49t10.5 66.5q-32 11 -62.5 11.5t-53 -7t-43 -21t-33.5 -26t-24 -27.5t-14 -20t-5 -9q1 12 1 34
q0 21 -1 24l3 7q4 7 8.5 19.5t9 29t6 36t0.5 40.5t-9.5 42t-23 40t-40 36t-59.5 29q-24 -32 -33 -65.5t-6 -60t15.5 -52.5t25.5 -43.5t30 -34t23 -21.5q6 -4 10 -7q0 -34 -6 -92l-1 8q-3 7 -8 18.5t-13 26t-20 29.5t-26 29t-34.5 23.5t-43.5 14t-53 0.5t-63 -17
q3 -33 13.5 -60t25.5 -44.5t35.5 -30.5t40 -20t41.5 -11t38 -4.5t33 0t22 0.5q5 1 8 1q-12 -75 -37 -137q-12 21 -26.5 39t-41.5 36.5t-59 26.5t-79 3.5t-100 -26.5q15 -40 34.5 -69.5t40 -47t43.5 -27.5t43.5 -13.5t42.5 -1.5t39.5 6.5t33.5 10.5q-48 -88 -118 -138
t-152 -51q-9 0 -15 -6t-6 -15t6 -15t15 -6q98 1 181 62.5t136 169.5l8 -5q8 -5 22 -10.5t32.5 -13t41 -10.5t45.5 -4t47.5 7t47 22t43 41.5t35.5 65.5q-31 25 -64.5 36.5z" />
    <glyph glyph-name="bullseye" unicode="&#xe632;" 
d="M901.5 609.5q-60.5 103.5 -164 164t-225.5 60.5t-225.5 -60.5t-164 -164t-60.5 -225.5t60.5 -225.5t164 -164t225.5 -60.5t225.5 60.5t164 164t60.5 225.5t-60.5 225.5zM857 238.5q-30 -69.5 -80 -119.5t-119.5 -80t-145.5 -30t-145.5 30t-119.5 80t-80 119.5t-30 145.5
t30 145.5t80 119.5t119.5 80t145.5 30t145.5 -30t119.5 -80t80 -119.5t30 -145.5t-30 -145.5zM512 684q-124 0 -212 -88t-88 -212t88 -212t212 -88t212 88t88 212t-88 212t-212 88zM671 225q-66 -66 -159 -66t-159 66t-66 159t66 159t159 66t159 -66t66 -159t-66 -159z
M512 534q-62 0 -106 -44t-44 -106t44 -106t106 -44t106 44t44 106t-44 106t-106 44z" />
    <glyph glyph-name="gridcaretdown" unicode="&#xe637;" horiz-adv-x="1025" 
d="M512 143l-392 392q-15 15 -15 35t15 35t35 15t35 -15l322 -322l322 322q15 15 35 15t35 -15t15 -35t-15 -35z" />
    <glyph glyph-name="triangle-up" unicode="&#xe638;" horiz-adv-x="1025" 
d="M869 254l-324 325q-14 14 -33 14t-33 -14l-324 -325q-14 -13 -14 -32t14 -33t33 -14h648q19 0 33 14t14 33t-14 32z" />
    <glyph glyph-name="triangle-down" unicode="&#xe639;" 
d="M869 579q-14 14 -33 14h-648q-19 0 -33 -14t-14 -33t14 -32l324 -325q14 -14 33 -14t33 14l324 325q14 13 14 32t-14 33z" />
    <glyph glyph-name="cloud-down" unicode="&#xe64a;" 
d="M923 346q-39 49 -100 63q19 29 19 65q0 50 -35 85t-85 35q-45 0 -78 -29q-27 67 -88 108t-134 41q-99 0 -169.5 -70.5t-70.5 -169.5q0 -6 1 -20q-55 -26 -88 -77.5t-33 -112.5q0 -87 61.5 -148.5t148.5 -61.5h510q75 0 127.5 52.5t52.5 127.5q0 63 -39 112zM657 328
l-164 -165q-4 -4 -11 -4t-11 4l-165 165q-4 4 -4 11q0 6 4.5 10.5t10.5 4.5h105v165q0 6 4.5 10.5t10.5 4.5h90q6 0 10.5 -4.5t4.5 -10.5v-165h105q7 0 11 -4t4 -11q0 -6 -5 -11z" />
    <glyph glyph-name="cloud-up" unicode="&#xe64b;" 
d="M923 346q-39 49 -100 63q19 29 19 65q0 50 -35 85t-85 35q-45 0 -78 -29q-27 67 -88 108t-134 41q-99 0 -169.5 -70.5t-70.5 -169.5q0 -6 1 -20q-55 -26 -88 -77.5t-33 -112.5q0 -87 61.5 -148.5t148.5 -61.5h510q75 0 127.5 52.5t52.5 127.5q0 63 -39 112zM657.5 358.5
q-4.5 -4.5 -10.5 -4.5h-105v-165q0 -6 -4.5 -10.5t-10.5 -4.5h-90q-6 0 -10.5 4.5t-4.5 10.5v165h-105q-7 0 -11 4t-4 11q0 6 5 11l164 165q4 4 11 4t11 -4l165 -165q4 -4 4 -11q0 -6 -4.5 -10.5z" />
    <glyph glyph-name="bubble" unicode="&#xe652;" horiz-adv-x="1025" 
d="M901.5 610q-60.5 74 -163.5 117t-226 43q-91 0 -174.5 -25.5t-144 -68.5t-96 -102.5t-35.5 -125.5q0 -75 45.5 -141t124.5 -110q-6 -20 -13.5 -38.5t-13.5 -30t-16.5 -25.5t-15.5 -20q-2 -2 -17 -19q-13 -13 -16 -17l-4 -4l-3 -5l-3 -4q-3 -4 -2.5 -5t-1 -5t0.5 -6v-1
q2 -9 8.5 -14.5t15.5 -4.5q33 4 57 11q132 34 231 122q38 -4 73 -4q123 0 226 43t163.5 117t60.5 161.5t-60.5 161.5z" />
    <glyph glyph-name="bubble-o" unicode="&#xe653;" horiz-adv-x="1025" 
d="M901.5 610q-60.5 74 -163.5 117t-226 43t-226 -43t-163.5 -117t-60.5 -162q0 -75 45.5 -141t124.5 -110q-6 -20 -13.5 -38.5t-13.5 -30t-16 -25.5t-16 -20q-6 -7 -17 -19q-12 -13 -16 -17l-4 -5l-3 -4l-3 -4q-3 -4 -2.5 -5t-1 -5t0.5 -6v-1q2 -8 8 -13.5t13 -5.5h3
q33 4 57 11q132 34 231 122q38 -4 73 -4q123 0 226 43t163.5 117t60.5 161.5t-60.5 161.5zM845.5 320q-52.5 -59 -142 -94t-191.5 -35q-31 0 -65 4l-29 3l-22 -19q-61 -54 -138 -86q23 41 36 87l13 48l-44 25q-65 37 -101 88t-36 107q0 69 52.5 128.5t142 94t191.5 34.5
t191.5 -34.5t142 -94t52.5 -128.5t-52.5 -128z" />
    <glyph glyph-name="copy" unicode="&#xe65a;" 
d="M948 627q-14 14 -34 14h-209q-30 0 -64 -20v165q0 20 -14.5 34t-34.5 14h-209q-20 0 -44 -10t-38 -24l-205 -205q-14 -14 -24 -38t-10 -44v-338q0 -20 14 -34t34 -14h273v-145q0 -20 14.5 -34t34.5 -14h482q20 0 34 14t14 34v611q0 20 -14 34zM641 534v-150h-151z
M319 727v-150h-150zM418 402q-14 -14 -24.5 -38t-10.5 -44v-129h-257v322h209q20 0 34 14t14 34v209h193v-209zM898 -2h-450v322h209q20 0 34 14t14 34v209h193v-579v0z" />
    <glyph glyph-name="correct-2" unicode="&#xe658;" 
d="M204 405l184 -158l420 456l97 -88l-507 -548l-280 240z" />
    <glyph glyph-name="2arrow-left" unicode="&#xe664;" 
d="M575 384l312 311q8 8 8 18.5t-8 18.5l-40 40q-8 8 -18 8t-18 -8l-370 -370q-7 -8 -7 -18t7 -18l370 -370q8 -8 18 -8t18 8l40 40q8 8 8 18.5t-8 17.5zM271 384l312 311q7 8 7 18.5t-7 18.5l-40 40q-8 8 -18.5 8t-18.5 -8l-369 -370q-8 -8 -8 -18t8 -18l369 -370
q8 -8 18.5 -8t18.5 8l40 40q7 8 7 18.5t-7 17.5z" />
    <glyph glyph-name="arrow-down-2" unicode="&#xe667;" horiz-adv-x="1025" 
d="M710.5 157.5q-4.5 9.5 -15.5 9.5h-116v650q0 8 -5 12.5t-12 4.5h-100q-7 0 -12 -4.5t-5 -12.5v-650h-116q-11 0 -15 -10q-5 -9 2 -18l185 -200q5 -5 13 -5q6 0 12 5l182 200q7 9 2.5 18.5z" />
    <glyph glyph-name="download" unicode="&#xe669;" horiz-adv-x="1025" 
d="M894.5 249q-13.5 13 -32.5 13h-221l-64 -64q-28 -27 -65 -27t-65 27l-64 64h-221q-19 0 -32.5 -13t-13.5 -32v-152q0 -19 13.5 -32.5t32.5 -13.5h700q19 0 32.5 13.5t13.5 32.5v152q0 19 -13.5 32zM716 89q-9 -9 -21.5 -9t-21.5 9t-9 21.5t9 21.5t21.5 9t21.5 -9t9 -21.5
t-9 -21.5zM838 89q-9 -9 -21.5 -9t-21.5 9t-9 21.5t9 21.5t21.5 9t21.5 -9t9 -21.5t-9 -21.5zM491 241q8 -9 21 -9t21 9l213 213q15 14 7 33t-28 19h-122v213q0 12 -9 21t-21 9h-122q-12 0 -21 -9t-9 -21v-213h-122q-20 0 -28 -19t7 -33z" />
    <glyph glyph-name="earth" unicode="&#xe66d;" 
d="M901.5 609.5q-60.5 103.5 -164 164t-225.5 60.5t-225.5 -60.5t-164 -164t-60.5 -225.5t60.5 -225.5t164 -164t225.5 -60.5t225.5 60.5t164 164t60.5 225.5t-60.5 225.5zM568 147q-6 7 -4 12q0 -3 -4 -5q-3 3 -10.5 8.5t-10.5 8.5q-1 2 -3 5t-5.5 8.5t-5 9.5t0.5 4
q-12 -4 -33 7q-4 2 -12 12t-17 9q-3 -1 -8 -2.5t-8.5 -1.5t-9.5 3q-4 1 -12 6t-11 6l-8 5l-9 4q-4 2 -7.5 6t-5.5 8q-1 3 -2.5 13.5t-4.5 15.5q-4 6 -10.5 12t-11.5 6q5 0 0 7.5t-8 11.5q-1 1 -7 8q-6 6 -10 11q-4 4 -7 10.5t-1 10.5l-1.5 1.5t-4 2.5l-5 2t-3.5 1
q1 -3 2.5 -9t3.5 -9q1 -2 10 -17q15 -24 14 -36q-4 -1 -5 1t-1.5 6.5t-1.5 5.5q-2 4 -9 8t-9 8l1 0.5t2 0.5q0 6 -6.5 14t-5.5 12q-5 3 -8.5 13.5t-5.5 13.5t-5.5 5.5t-9 6t-7.5 4.5q-1 1 -4 5q-20 24 -12 25q-8 -1 -13 12t-3 20l-1 1v13.5t1.5 21t6.5 9.5q-5 -1 -7 7t0 11
q1 2 5.5 -2.5l5.5 -5.5q7 4 5 11q-1 2 -12 12q-25 16 -26 16q4 6 -1 11q-6 -4 -7 -2t-1.5 6.5t-2.5 5.5q-3 0 -8 5q53 83 138 130h13q5 0 9 -2.5t8.5 -6.5t6.5 -6q1 4 -3 11q1 3 13 7q14 1 18 -1l-12 15l-3 -3q-5 4 -25 -4q-1 -1 -5.5 -3.5t-7.5 -3.5q-4 -2 -7 -1
q28 15 55 24q2 -1 6 -5t6 -5q-2 1 -2 -2q-2 -7 0 -11q3 -4 8 -5t12 0.5t9 1.5l6 -1q19 -2 15 4q1 -3 3.5 -10t5.5 -10q3 2 1 8t0 8q1 1 4 2.5t7 2.5q3 2 4 2q4 2 -4 8q-1 1 -5 2t-7 2.5t-6 3.5t-3 4.5t3 6.5q4 3 12 2.5t12 -2.5q15 -9 4 -16q6 -1 14.5 -5t6.5 -9q5 9 9 9
q3 -1 5.5 -8t3.5 -8q5 -6 9.5 -2.5t9.5 10t6 6.5q-6 2 -2 4q9 6 16 3q2 -1 5 -5q5 -11 -2 -10q5 -5 4.5 -12t-8.5 -6q-3 0 -9 3t-8.5 3t-8.5 -3q-2 -3 -6 -10t-7 -10q-8 -9 -29 -7q2 0 0 -3.5t-5.5 -7.5t-4.5 -5q-5 -6 -7 -13q0 -2 -0.5 -8.5t-2.5 -10.5q7 2 11 -7
q4 -8 0 -8q20 2 34 -3q21 -7 24 -15q4 5 17 1q6 -3 10 -18q2 -9 7.5 -15.5t12.5 -3.5l1 1q3 2 4.5 2.5t3 2t2 3t-0.5 2.5q-5 3 -7 9.5t1 10.5q2 3 9.5 7.5t9.5 9.5q2 7 -6 12t-8 9q0 3 4 7.5t3 7.5q0 2 -2 7.5t-2.5 8t2.5 6.5q4 2 19.5 -0.5t20.5 -5.5q1 -1 7 -3.5t10.5 -5
t4.5 -5.5h-3q5 -3 5.5 -7.5t-4.5 -7.5q4 1 9 -2q10 -3 1 -6q2 1 5 1.5t5 1.5q1 1 3 2t2.5 1.5t2.5 1t4 -1.5l2 3t5 6q2 3 4 3t3 -1.5t2 -3.5q1 -1 2 -3.5t2 -3.5q1 -3 5 -6t6 -6q0 -1 2 -9q2 -7 5 -9.5t8 -4.5q2 0 6 1t6.5 0.5t2.5 -4.5q4 3 4 4q0 -7 3.5 -12t10.5 -4
l-1 -13q-2 -3 -9 -4.5t-9 -2.5q-2 0 -8.5 -6.5t-5.5 -8.5q-10 12 -30 7q-22 -4 -30 -7q-10 -5 -13 -9q-1 0 -2.5 -4t-3 -6.5t-2.5 -2.5q4 0 8 5t6 6q15 10 25 7q13 -4 4 -10q-1 -1 -6 -0.5t-7 -0.5q5 -1 8.5 -3t2.5 -6q9 -5 3 -11q-8 -8 -18 -7q2 0 0 -2l-10 -7
q-1 0 -7.5 -2.5t-9.5 -5.5q-1 -2 -1 -7t-0.5 -7t-5.5 -1q-1 -4 -10 -6t-12 -6q3 -4 -1 -9q-7 -6 -12 1q-3 -1 -4.5 -5.5t-4.5 -6.5q4 -7 -1 -10l2 -1t4.5 -2.5t3.5 -1.5q-3 -6 -7 -6q4 -9 -9 -20q-2 -3 -7 -5t-9 -3.5t-5 -2.5q-6 -5 -8.5 -10.5t-0.5 -11t11 -7.5v-4v-11
l1 -4q0 -5 0.5 -8t0 -8t-2.5 -5.5t-6 1.5q-5 2 -12 25q-1 6 -7 14q-3 -2 -5 -3t-2.5 -0.5t-3 2.5t-4.5 3q-3 2 -10 3t-9 3q-14 -10 -17 5q-1 -3 0.5 -8l1.5 -5q-5 -8 -13 -1q-4 3 -16.5 0.5t-16.5 -0.5l2 -2q2 -1 3 -2q-1 -2 -2 -3t-2.5 -1h-3t-2.5 -1q-2 -2 -5.5 -6.5
t-5.5 -5.5q4 -9 3.5 -14t-2 -14.5t-1.5 -15.5q0 -10 5.5 -22t13.5 -17q4 -2 14 -2.5t14 0.5q3 2 5 4.5t3 6.5t2 6q4 11 15 12q7 1 10.5 -1.5t2.5 -6t-2.5 -7t-4 -8.5l-3.5 -7q-1 -5 -2 -13.5t-1 -9.5q1 -1 8 -1q0 1 1 3.5t1 3.5q3 -5 9.5 -5.5t9.5 4.5q1 -1 7 -8t6 -12
q1 -2 2.5 -7.5t1 -7.5t-5.5 -2q-2 0 -3 -2t0 -4.5t1.5 -5t2 -5l1.5 -2.5q11 -20 29 -11q0 -17 -8 -19q-5 -1 -11 6v0zM577 15q-1 6 -1 9q-1 5 4 13t5 12q-10 2 -7 15q1 9 17 23q11 10 7 29q-2 7 -3 21.5t-3 20.5q0 -1 6 -2.5t7 -4.5q1 2 2.5 6.5t3.5 7.5q1 2 5 4.5t5 3
t5 3.5t7 5t7.5 3t5.5 -3q3 -3 -1 -10.5t0 -10.5q1 2 1.5 8t3.5 9t6.5 3.5t6 -1t6 -4t6.5 -3.5q9 -2 21 -12l0.5 1t2 2t3 1.5t3.5 1.5l2 1q4 0 5.5 0.5t5 -1.5t4.5 -2.5t4 -3t4 -3.5q2 -2 6 -4q5 -3 7.5 -5t5 -5.5t1.5 -7.5q4 -1 14 -5q2 -1 7.5 -2t7.5 -2q-85 -90 -206 -111
z" />
    <glyph glyph-name="mail-o" unicode="&#xe66f;" horiz-adv-x="1025" 
d="M938.5 714q-23.5 24 -56.5 24h-740q-33 0 -56.5 -24t-23.5 -57v-546q0 -33 23.5 -57t56.5 -24h740q33 0 56.5 24t23.5 57v546q0 33 -23.5 57zM898 111q0 -7 -5 -11.5t-11 -4.5h-740q-6 0 -11 4.5t-5 11.5v386q16 -19 35 -34q135 -103 214 -169q25 -22 41.5 -34
t43.5 -24.5t51 -12.5h2q24 0 51 12.5t43 24.5t42 34q79 66 214 169q19 15 35 34v-386zM898 644v-5q0 -30 -23.5 -66.5t-50.5 -57.5q-96 -76 -202 -160q-3 -2 -17.5 -14.5t-23 -19t-22 -15.5t-25 -13.5t-22.5 -4.5h-1q-10 0 -21.5 4.5t-25 13.5t-22 15.5t-23 19t-17.5 14.5
q-104 82 -202 160q-74 58 -74 142q0 7 5 11.5t11 4.5h740q4 -2 7 -1t4.5 -3.5t2.5 -4.5t1 -7l1 -6v-7v0z" />
    <glyph glyph-name="mail" unicode="&#xe670;" horiz-adv-x="1025" 
d="M148 520q17 -12 103 -71.5t132 -92.5q5 -3 21.5 -15t27 -19t26 -16t29 -13.5t24.5 -4.5h2q11 0 24.5 4.5t29 13.5t26 16t27.5 19q15 11 21 15q46 33 235 164q37 25 61.5 61.5t24.5 75.5q0 33 -24 57t-56 24h-740q-38 0 -59 -26.5t-21 -65.5q0 -31 27.5 -68t58.5 -58v0z
M912 466q-165 -112 -250 -173q-29 -22 -47 -33q-18 -12 -47.5 -24.5t-54.5 -12.5h-2q-25 0 -54.5 12.5t-47.5 24t-47 33.5q-67 49 -249 173q-29 19 -51 44v-399q0 -33 23.5 -57t56.5 -24h740q33 0 56.5 24t23.5 57v399q-22 -25 -50 -44z" />
    <glyph glyph-name="exc" unicode="&#xe674;" 
d="M552 234h-70q-6 0 -11 8.5t-5 15.5l-23 447q0 7 4.5 15t10.5 8h118q6 0 11 -8t5 -15l-24 -447q0 -7 -4.5 -15.5t-11.5 -8.5zM592 116.5q0 -32.5 -23 -55.5t-55.5 -23t-55.5 23t-23 55.5t23 55.5t55.5 23t55.5 -23t23 -55.5z" />
    <glyph glyph-name="externallink" unicode="&#xe676;" horiz-adv-x="1025" 
d="M738 324h-30q-7 0 -11 -4.5t-4 -10.5v-151q0 -31 -22 -53t-54 -22h-391q-31 0 -53.5 22t-22.5 53v392q0 31 22.5 53t53.5 22h331q7 0 11 4.5t4 10.5v30q0 7 -4 11t-11 4h-331q-56 0 -96 -39.5t-40 -95.5v-392q0 -56 40 -96t96 -40h391q56 0 96 40t40 96v151q0 6 -4 10.5
t-11 4.5zM925 737q-9 9 -21 9h-241q-13 0 -21.5 -9t-8.5 -21.5t8 -21.5l83 -83l-307 -307q-4 -4 -4 -10.5t4 -10.5l54 -54q5 -5 11 -5t11 5l307 307l83 -83q8 -9 20.5 -9t21.5 9t9 21v241q0 13 -9 22z" />
    <glyph glyph-name="video" unicode="&#xe67b;" horiz-adv-x="1025" 
d="M916 668q-7 2 -12 2q-13 0 -21 -9l-190 -189v78q0 56 -40 95.5t-96 39.5h-331q-56 0 -96 -39.5t-40 -95.5v-332q0 -56 40 -95.5t96 -39.5h331q56 0 96 39.5t40 95.5v78l190 -189q8 -9 21 -9q5 0 12 2q18 8 18 28v512q0 20 -18 28z" />
    <glyph glyph-name="films" unicode="&#xe680;" horiz-adv-x="1025" 
d="M913.5 729q-20.5 21 -49.5 21h-704q-29 0 -49.5 -21t-20.5 -50v-590q0 -29 20.5 -50t49.5 -21h704q29 0 49.5 21t20.5 50v590q0 29 -20.5 50zM259 103q0 -12 -8.5 -20t-19.5 -8h-56q-12 0 -20.5 8t-8.5 20v56q0 11 8.5 19.5t20.5 8.5h56q11 0 19.5 -8.5t8.5 -19.5v-56z
M259 272q0 -12 -8.5 -20.5t-19.5 -8.5h-56q-12 0 -20.5 8.5t-8.5 20.5v56q0 11 8.5 19.5t20.5 8.5h56q11 0 19.5 -8.5t8.5 -19.5v-56zM259 440q0 -11 -8.5 -19.5t-19.5 -8.5h-56q-12 0 -20.5 8.5t-8.5 19.5v56q0 12 8.5 20.5t20.5 8.5h56q11 0 19.5 -8.5t8.5 -20.5v-56z
M259 609q0 -11 -8.5 -19.5t-19.5 -8.5h-56q-12 0 -20.5 8.5t-8.5 19.5v56q0 12 8.5 20t20.5 8h56q11 0 19.5 -8t8.5 -20v-56zM709 103q0 -12 -8.5 -20t-19.5 -8h-338q-11 0 -19.5 8t-8.5 20v225q0 11 8.5 19.5t19.5 8.5h338q11 0 19.5 -8.5t8.5 -19.5v-225v0zM709 440
q0 -11 -8.5 -19.5t-19.5 -8.5h-338q-11 0 -19.5 8.5t-8.5 19.5v225q0 12 8.5 20t19.5 8h338q11 0 19.5 -8t8.5 -20v-225v0zM878 103q0 -12 -8.5 -20t-20.5 -8h-56q-11 0 -19.5 8t-8.5 20v56q0 11 8.5 19.5t19.5 8.5h56q12 0 20.5 -8.5t8.5 -19.5v-56zM878 272
q0 -12 -8.5 -20.5t-20.5 -8.5h-56q-11 0 -19.5 8.5t-8.5 20.5v56q0 11 8.5 19.5t19.5 8.5h56q12 0 20.5 -8.5t8.5 -19.5v-56zM878 440q0 -11 -8.5 -19.5t-20.5 -8.5h-56q-11 0 -19.5 8.5t-8.5 19.5v56q0 12 8.5 20.5t19.5 8.5h56q12 0 20.5 -8.5t8.5 -20.5v-56zM878 609
q0 -11 -8.5 -19.5t-20.5 -8.5h-56q-11 0 -19.5 8.5t-8.5 19.5v56q0 12 8.5 20t19.5 8h56q12 0 20.5 -8t8.5 -20v-56z" />
    <glyph glyph-name="folder" unicode="&#xe689;" horiz-adv-x="1025" 
d="M926.5 590.5q-35.5 35.5 -85.5 35.5h-364v18q0 49 -35.5 85t-85.5 36h-173q-50 0 -85.5 -36t-35.5 -85v-520q0 -49 35.5 -85t85.5 -36h658q50 0 85.5 36t35.5 85v381q0 50 -35.5 85.5z" />
    <glyph glyph-name="folder-o" unicode="&#xe68a;" horiz-adv-x="1025" 
d="M926.5 590.5q-35.5 35.5 -85.5 35.5h-364v18q0 49 -35.5 85t-85.5 36h-173q-50 0 -85.5 -36t-35.5 -85v-520q0 -49 35.5 -85t85.5 -36h658q50 0 85.5 36t35.5 85v381q0 50 -35.5 85.5zM893 124q0 -21 -15.5 -36.5t-36.5 -15.5h-658q-21 0 -36.5 15.5t-15.5 36.5v520
q0 21 15.5 36.5t36.5 15.5h173q22 0 37 -15.5t15 -36.5v-35q0 -22 15 -37t37 -15h381q21 0 36.5 -15t15.5 -37v-381z" />
    <glyph glyph-name="4square" unicode="&#xe68e;" 
d="M481 471q0 -27 -19.5 -46.5t-46.5 -19.5h-235q-27 0 -46.5 19.5t-19.5 46.5v245q0 27 19.5 46.5t46.5 19.5h235q27 0 46.5 -19.5t19.5 -46.5v-245zM481 52q0 -27 -19.5 -46.5t-46.5 -19.5h-235q-27 0 -46.5 19.5t-19.5 46.5v245q0 27 19.5 46.5t46.5 19.5h235
q27 0 46.5 -19.5t19.5 -46.5v-245zM910 471q0 -27 -19.5 -46.5t-46.5 -19.5h-235q-27 0 -46.5 19.5t-19.5 46.5v245q0 27 19.5 46.5t46.5 19.5h235q27 0 46.5 -19.5t19.5 -46.5v-245zM910 52q0 -27 -19.5 -46.5t-46.5 -19.5h-235q-27 0 -46.5 19.5t-19.5 46.5v245
q0 27 19.5 46.5t46.5 19.5h235q27 0 46.5 -19.5t19.5 -46.5v-245z" />
    <glyph glyph-name="gift" unicode="&#xe693;" 
d="M956.5 510q-5.5 5 -13.5 5h-258q55 0 93.5 38.5t38.5 93t-38.5 93t-93.5 38.5q-62 0 -98 -45l-75 -97l-75 97q-36 45 -98 45q-55 0 -93.5 -38.5t-38.5 -93t38.5 -93t93.5 -38.5h-258q-8 0 -13.5 -5t-5.5 -13v-188q0 -8 5.5 -13.5t13.5 -5.5h56v-244q0 -23 16.5 -39.5
t39.5 -16.5h638q23 0 39.5 16.5t16.5 39.5v244h56q8 0 13.5 5.5t5.5 13.5v188q0 8 -5.5 13zM645 685q15 18 40 18q24 0 40.5 -16.5t16.5 -40t-16.5 -40t-40.5 -16.5h-113zM339 590q-24 0 -40.5 16.5t-16.5 40t16.5 40t40.5 16.5q25 0 40 -18l74 -95h-114zM606 403v-307
q0 -15 -10.5 -23t-27.5 -8h-112q-17 0 -27.5 8t-10.5 23v419h188v-112z" />
    <glyph glyph-name="github-c" unicode="&#xe695;" 
d="M901.5 598.5q-60.5 103.5 -164 164t-225.5 60.5t-225.5 -60.5t-164 -164t-60.5 -225.5q0 -147 86 -264.5t222 -162.5q15 -3 23 4t8 18q0 1 -1 31v52l-13 -2q-13 -2 -33 -2t-41 4t-39 17.5t-26 36.5l-6 13q-5 14 -18 30t-25 22l-5 3q-4 3 -7.5 7t-5 8.5t3 7t16.5 2.5
l12 -2q12 -2 29 -14t29 -30q13 -25 32 -37.5t38.5 -12.5t33.5 3t26 9q6 39 29 60q-33 4 -60 11t-55.5 23t-47 39t-30.5 61.5t-12 87.5q0 71 46 121q-22 53 4 120q17 5 50.5 -8t49.5 -23q15 -9 24 -16q55 16 113 16t113 -16l22 14q23 14 54 26t47 7q26 -67 5 -120
q46 -50 46 -121q0 -49 -12 -87.5t-31 -61.5t-47.5 -39t-55 -23t-60.5 -11q31 -26 31 -83v-123q0 -11 7.5 -18t22.5 -4q136 45 222 162.5t86 264.5q0 122 -60.5 225.5z" />
    <glyph glyph-name="github-s" unicode="&#xe696;" 
d="M387 110q-10 -1 -8.5 -8t10.5 -5t8 8q-1 7 -10 5zM353 106q-9 0 -9 -7t10 -6q9 0 9 6q0 8 -10 7zM307.5 107.5q-2.5 -6.5 7.5 -8.5q9 -4 11 3t-7 10q-9 2 -11.5 -4.5zM912.5 784.5q-49.5 49.5 -119.5 49.5h-562q-70 0 -119.5 -49.5t-49.5 -119.5v-562q0 -70 49.5 -119.5
t119.5 -49.5h131q13 0 19.5 1t13 7.5t6.5 19.5q0 1 -1 40v60l-13 -2q-13 -2 -33 -2t-41 4t-39 17.5t-26 36.5l-6 13q-5 14 -18 30t-25 22l-5 3q-4 3 -7.5 7t-5 8.5t3 7t16.5 2.5l12 -2q12 -2 29 -14t29 -30q13 -24 32 -37t38.5 -13t33.5 3t26 9q6 39 29 60q-33 4 -60 11
t-55.5 23t-47 39.5t-30.5 61.5t-12 87q0 71 46 121q-22 53 4 120q17 5 50.5 -8t49 -22.5t24.5 -16.5q55 16 113 16t113 -16l22 14q23 15 54 26.5t47 6.5q27 -67 5 -120q46 -50 46 -121q0 -49 -12 -87.5t-31 -61.5t-47.5 -39t-55 -23t-60.5 -11q31 -26 31 -83v-140
q0 -10 3 -16t9.5 -8.5t11.5 -3t14 -0.5h131q70 0 119.5 49.5t49.5 119.5v562q0 70 -49.5 119.5zM240 179q-4 -3 1 -9q6 -6 10 -2q4 3 -1 9q-6 5 -10 2zM221 194q-2 -5 4 -7q5 -3 8 1q1 4 -5 7q-5 2 -7 -1zM258 156q-5 -3 0.5 -10.5t9.5 -4.5q6 5 0 12q-4 7 -10 3zM279 130
q-5 -5 2 -11q7 -7 12 -2t-2 11q-8 7 -12 2z" />
    <glyph glyph-name="heart-o" unicode="&#xe6a3;" 
d="M898 707.5q-64 62.5 -176 62.5q-31 0 -63.5 -11t-60.5 -29t-48 -34.5t-38 -34.5q-18 18 -38 34t-48 34.5t-60.5 29.5t-63.5 11q-112 0 -176 -62.5t-64 -172.5q0 -34 12 -69.5t27 -60.5t34 -49t28 -33t14 -13l313 -303q9 -9 22 -9t22 9l313 302q115 115 115 226
q0 110 -64 172.5zM803 356l-291 -281l-292 281q-94 94 -94 179q0 40 11 71.5t28 49.5t41 29.5t47 15.5t49 4t56 -12.5t55.5 -32t43.5 -36.5t30 -31q9 -11 25 -11t25 11q12 14 30 31t43.5 36.5t55.5 32t56 12.5t49 -4t47 -15.5t41 -29.5t28 -49.5t11 -71.5q0 -85 -95 -179z
" />
    <glyph glyph-name="heart" unicode="&#xe6a4;" 
d="M898 707.5q-64 62.5 -176 62.5q-31 0 -63.5 -11t-60.5 -29t-48 -34.5t-38 -34.5q-18 18 -38 34t-48 34.5t-60.5 29.5t-63.5 11q-112 0 -176 -62.5t-64 -172.5q0 -34 12 -69.5t27 -61t34 -49t28 -32.5t14 -13l313 -303q9 -9 22 -9t22 9l313 302q115 115 115 226
q0 110 -64 172.5z" />
    <glyph glyph-name="home" unicode="&#xe6a2;" horiz-adv-x="1025" 
d="M512 598l-321 -265q0 -1 -0.5 -2l-0.5 -1v-268q0 -15 11 -25.5t25 -10.5h215v214h142v-214h215q14 0 25 10.5t11 25.5v268q0 2 -1 3zM956 393l-122 102v228q0 7 -5 12t-13 5h-107q-8 0 -13 -5t-5 -12v-109l-137 114q-17 14 -42 14t-42 -14l-402 -335q-5 -4 -5.5 -11.5
t3.5 -13.5l35 -41q4 -5 11 -6t14 4l386 322l386 -322q5 -4 12 -4h2q7 1 11 6l35 41q5 6 4 13.5t-6 11.5z" />
    <glyph glyph-name="i-c-2" unicode="&#xe6aa;" 
d="M512 780q-106 0 -196.5 -52.5t-143 -143t-52.5 -196.5t52.5 -196.5t143 -143t196.5 -52.5t196.5 52.5t143 143t52.5 196.5t-52.5 196.5t-143 143t-196.5 52.5zM512 668q23 0 39.5 -16.5t16.5 -39.5t-16.5 -39.5t-39.5 -16.5t-39.5 16.5t-16.5 39.5t16.5 39.5t39.5 16.5z
M624 164h-224v56h56v224h-56v56h168v-280h56v-56z" />
    <glyph glyph-name="i" unicode="&#xe6ab;" 
d="M483 415q3 12 0 17.5t-8 5.5q-14 0 -32 -18.5t-33 -37.5t-21 -19q-4 0 -7.5 3.5t-3.5 7.5q0 14 48 64q58 58 124 58q20 0 34 -9t20 -33t-10 -65l-60 -168q-14 -37 -14 -49t10 -12q11 0 29 18.5t33.5 36.5t19.5 18t7 -3.5t3 -8.5q0 -10 -16.5 -31.5t-41.5 -44.5t-59 -40
t-64 -17q-23 0 -36.5 12t-13.5 36q0 41 34 127zM528 586q0 28 20 48.5t48 20.5q25 0 41 -16.5t16 -42.5q0 -30 -20 -49.5t-49 -19.5q-25 0 -40.5 16t-15.5 43v0z" />
    <glyph glyph-name="triangle-left" unicode="&#xe6b0;" 
d="M707 741q-14 14 -33 14t-32 -14l-325 -324q-14 -14 -14 -33t14 -33l325 -324q13 -14 32 -14t33 14t14 33v648q0 19 -14 33z" />
    <glyph glyph-name="symlist" unicode="&#xe6be;" horiz-adv-x="1025" 
d="M845 177h-446q-13 0 -22 -9t-9 -22t9 -21.5t22 -8.5h446q13 0 22 8.5t9 21.5t-9 22t-22 9zM845 414h-446q-13 0 -22 -9t-9 -21.5t9 -21.5t22 -9h446q13 0 22 9t9 21.5t-9 21.5t-22 9zM399 591h446q13 0 22 9t9 21.5t-9 21.5t-22 9h-446q-13 0 -22 -9t-9 -21.5t9 -21.5
t22 -9zM255 690h-75q-13 0 -22 -9t-9 -22v-76q0 -12 9 -21t22 -9h75q13 0 22 9t9 21v76q0 13 -9 22t-22 9zM255 452h-75q-13 0 -22 -9t-9 -21v-76q0 -13 9 -22t22 -9h75q13 0 22 9t9 22v76q0 12 -9 21t-22 9zM255 215h-75q-13 0 -22 -9t-9 -22v-76q0 -12 9 -21t22 -9h75
q13 0 22 9t9 21v76q0 13 -9 22t-22 9z" />
    <glyph glyph-name="arrow-left-2" unicode="&#xe6bf;" horiz-adv-x="1025" 
d="M929.5 442.5q-4.5 4.5 -11.5 4.5h-609v109q0 10 -9 14q-10 4 -17 -3l-188 -173q-5 -5 -5 -11q0 -7 5 -12l188 -171q7 -6 16.5 -2t9.5 14v110h609q7 0 11.5 4t4.5 11v94q0 7 -4.5 11.5z" />
    <glyph glyph-name="arrow-right-2" unicode="&#xe6c0;" 
d="M929 397l-188 171q-7 6 -16.5 2t-9.5 -14v-110h-609q-7 0 -11.5 -4t-4.5 -11v-94q0 -7 4.5 -11.5t11.5 -4.5h609v-109q0 -10 9 -14q10 -4 18 3l187 173q5 5 5 11q0 7 -5 12z" />
    <glyph glyph-name="arrow-up-2" unicode="&#xe6c1;" 
d="M696 613l-174 188q-5 5 -11 5q-7 0 -12 -5l-171 -188q-6 -7 -2 -16.5t14 -9.5h110v-609q0 -7 4 -11.5t11 -4.5h94q7 0 11.5 4.5t4.5 11.5v609h109q10 0 14 9q4 10 -2 17z" />
    <glyph glyph-name="reduce-c" unicode="&#xe6cb;" 
d="M515.5 830q-90.5 0 -173.5 -35.5t-142.5 -95.5t-95 -142.5t-35.5 -173.5t35.5 -173.5t95 -142.5t142.5 -95.5t173.5 -35.5t173.5 35.5t142.5 95.5t95 142.5t35.5 173.5t-35.5 173.5t-95 142.5t-142.5 95.5t-173.5 35.5zM660 352h-289q-12 0 -21 9t-9 22t9 21.5t21 8.5
h289q12 0 21 -8.5t9 -21.5t-9 -22t-21 -9z" />
    <glyph glyph-name="reduce-s" unicode="&#xe6cc;" 
d="M66 827v-893h892v893h-892zM728 343h-417v60h417v-60z" />
    <glyph glyph-name="minus" unicode="&#xe6ce;" 
d="M147 439h729q11 0 19.5 -8t8.5 -20v-56q0 -12 -8.5 -20t-19.5 -8h-729q-12 0 -20 8t-8 20v56q0 12 8 20t20 8z" />
    <glyph glyph-name="mobile" unicode="&#xe6e0;" 
d="M672 819h-319q-30 0 -51.5 -21t-21.5 -51v-726q0 -30 21.5 -51.5t51.5 -21.5h319q30 0 51.5 21.5t21.5 51.5v726q0 30 -21.5 51t-51.5 21zM469 761h87q6 0 10 -4t4 -10t-4 -10.5t-10 -4.5h-87q-6 0 -10.5 4.5t-4.5 10.5t4.5 10t10.5 4zM512 -23q-18 0 -30.5 13t-12.5 31
t12.5 30.5t30.5 12.5t31 -12.5t13 -30.5t-13 -31t-31 -13zM716 93h-407v581h407v-581z" />
    <glyph glyph-name="bell-o" unicode="&#xe6d4;" 
d="M652 56q-10 -52 -50.5 -85.5t-93 -33.5t-93 33.5t-50.5 85.5h-267l117 239v238q0 124 86 211t207.5 87t207 -87t85.5 -211v-238l117 -239h-266v0zM508.5 -4q28.5 0 51 16.5t31.5 43.5h-165q9 -27 31.5 -43.5t51 -16.5zM743 295v238q0 99 -69 169t-166 70t-165.5 -70
t-68.5 -169v-238l-88 -179h645z" />
    <glyph glyph-name="9square" unicode="&#xe6d5;" 
d="M128 766h220v-220h-220v220zM402 766h220v-220h-220v220zM676 766h220v-220h-220v220zM128 494h220v-220h-220v220zM402 494h220v-220h-220v220zM676 494h220v-220h-220v220zM128 222h220v-220h-220v220zM402 222h220v-220h-220v220zM676 222h220v-220h-220v220z" />
    <glyph glyph-name="numlist" unicode="&#xe6dd;" 
d="M267 732h-41l-53 -50l28 -30q16 15 19 22h1v-5v-47v-48h-42v-39h130v39h-42v158zM854.5 631.5q-3.5 3.5 -8.5 3.5h-474q-5 0 -9 -3.5t-4 -8.5v-75q0 -5 4 -9t9 -4h474q5 0 8.5 4t3.5 9v75q0 5 -3.5 8.5zM265 157l37 45v34h-130v-59h42v20q6 0 18 1h19v0q-7 -7 -14 -15
t-16.5 -21t-12.5 -17l10 -22q41 3 41 -22q0 -11 -8.5 -16.5t-19.5 -5.5q-23 0 -42 17l-22 -34q26 -26 67 -26q32 0 53 18t21 49q0 20 -11.5 34.5t-31.5 19.5zM268 325h-49q0 9 13.5 20t29.5 20t29 25t13 36q0 27 -19.5 43.5t-47.5 16.5q-23 0 -41.5 -11.5t-27.5 -31.5
l33 -23q14 23 32 23q9 0 15 -5t6 -15q0 -9 -9.5 -17.5t-22 -17t-25.5 -18.5t-22 -26.5t-9 -36.5q0 -7 2 -21h141v62h-41v-23zM846 236h-474q-6 0 -9.5 -3.5t-3.5 -8.5v-75q0 -5 4 -9t9 -4h474q5 0 8.5 4t3.5 9v75q0 5 -3.5 8.5t-8.5 3.5zM846 436h-474q-6 0 -9.5 -3.5
t-3.5 -9.5v-75q0 -5 4 -8.5t9 -3.5h474q5 0 8.5 3.5t3.5 8.5v75q0 5 -3.5 9t-8.5 4z" />
    </font>
</defs>
</svg>
