<?xml version="1.0" standalone="no"?>
<!DOCTYPE svg PUBLIC "-//W3C//DTD SVG 1.1//EN" "http://www.w3.org/Graphics/SVG/1.1/DTD/svg11.dtd" >
<!--
2013-9-30: Created.
-->
<svg>
<metadata>
Created by iconfont
</metadata>
<defs>

<font id="iconfont" horiz-adv-x="1024" >
  <font-face
    font-family="iconfont"
    font-weight="500"
    font-stretch="normal"
    units-per-em="1024"
    ascent="896"
    descent="-128"
  />
    <missing-glyph />
    
    <glyph glyph-name="bianji4" unicode="&#59178;" d="M934.724189 617.173271L834.414864 516.863946 653.380212 697.898598l100.394659 100.351991A42.257063 42.257063 0 0 0 783.769535 810.666588c6.527999 0 19.157332-1.621333 29.951997-12.415999l121.002657-121.002656a42.538663 42.538663 0 0 0 0-60.074662zM299.374908-18.176009l-200.661316-19.626665 19.669331 200.661316L593.049551 637.52527 774.084202 456.533285l-474.709294-474.709294z m695.679942 755.79727L874.09486 858.581251A127.317323 127.317323 0 0 1 783.769535 895.999915c-32.725331 0-65.407995-12.458666-90.367993-37.418664l-646.229279-646.229279c-7.082666-7.082666-11.434666-16.469332-12.287999-26.495998l-26.197331-267.818645c-2.133333-25.002665 17.706665-46.037329 42.239996-46.037329 1.194667 0 2.432 0.042667 3.626666 0.128l267.818645 26.239998a42.12053 42.12053 0 0 1 26.495998 12.287999l646.186612 646.186613c49.919996 49.919996 49.919996 130.858656 0 180.778651z"  horiz-adv-x="1032" />

    
    <glyph glyph-name="bangding" unicode="&#59179;" d="M722.7 241.2l-45.2 45.2 140.1 140.1C890 499 890 617 817.6 689.4c-72.5 72.5-190.4 72.5-262.9 0l-140.1-140-45.2 45.2 140.1 140.1c97.4 97.5 256 97.4 353.4 0 97.4-97.4 97.4-256 0-353.4L722.7 241.2zM338.1-39.9c-66.8 0-129.5 26-176.7 73.2-97.4 97.4-97.4 256 0 353.4l140.1 140.1 45.2-45.2-140.1-140.2c-72.5-72.5-72.5-190.4 0-262.9 35.1-35.1 81.8-54.5 131.5-54.5s96.3 19.3 131.4 54.5l140.1 140.1 45.2-45.2-140-140.1c-47.2-47.2-110-73.2-176.7-73.2zM330.99 248.121l316.78 316.781 45.255-45.254-316.781-316.78z"  horiz-adv-x="1024" />

    
    <glyph glyph-name="bofang2" unicode="&#59177;" d="M692.224 400.384l-4.096 4.096L430.08 551.936c-4.096 4.096-8.192 4.096-12.288 4.096-12.288 0-20.48-8.192-20.48-20.48v-303.104c0-12.288 8.192-20.48 20.48-20.48 4.096 0 8.192 0 12.288 4.096L688.128 363.52h4.096c4.096 4.096 8.192 8.192 8.192 16.384s-4.096 16.384-8.192 20.48zM438.272 265.216V502.784L647.168 384 438.272 265.216zM512 797.696C282.624 797.696 98.304 613.376 98.304 384S282.624-29.696 512-29.696c229.376 0 413.696 184.32 413.696 413.696S741.376 797.696 512 797.696z m0-790.528c-208.896 0-376.832 167.936-376.832 376.832S303.104 760.832 512 760.832 888.832 592.896 888.832 384 720.896 7.168 512 7.168z"  horiz-adv-x="1024" />

    
    <glyph glyph-name="weibiaoti1" unicode="&#59176;" d="M671.053824 642.916352c6.05184-3.01056 13.463552-0.52224 16.47616 5.5296l43.646976 87.740416c3.012608 6.05184 0.524288 13.4656-5.527552 16.474112l-112.308224 55.86944c-6.05184 3.01056-13.4656 0.52224-16.47616-5.5296l-43.649024-87.740416c-3.01056-6.05184-0.52224-13.4656 5.527552-16.474112L671.053824 642.916352zM448.755712 176.400384c4.622336 4.931584 10.866688 13.91616 13.877248 19.968l203.35616 408.778752c3.012608 6.05184 0.524288 13.4656-5.527552 16.474112l-112.310272 55.873536c-6.05184 3.01056-13.463552 0.52224-16.47616-5.5296L329.13408 264.822784c-3.01056-6.05184-6.268928-16.474112-7.241728-23.16288l-32.774144-225.294336c-0.9728-6.688768 2.013184-8.126464 6.63552-3.19488L448.755712 176.400384z"  horiz-adv-x="1024" />

    
    <glyph glyph-name="jinggao2" unicode="&#59169;" d="M563.2 499.68C563.2 530.4 542.72 556 512 556S460.8 530.4 460.8 499.68l0-256c0-30.72 20.48-51.2 51.2-51.2s51.2 20.48 51.2 51.2L563.2 499.68zM512 146.4c-30.72 0-51.2-20.48-51.2-51.2 0-30.72 20.48-51.2 51.2-51.2s51.2 20.48 51.2 51.2C563.2 125.92 542.72 146.4 512 146.4z"  horiz-adv-x="1024" />

    
    <glyph glyph-name="lubiaosignpost3" unicode="&#59170;" d="M575.0272 724.10112l0-705.792c0-8.38656-6.79936-15.17568-15.18592-15.17568l-86.016 0c-8.38656 0-15.18592 6.78912-15.18592 15.17568L458.63936 724.10112c0 8.37632 6.79936 15.16544 15.18592 15.16544l86.016 0C568.22784 739.26656 575.0272 732.47744 575.0272 724.10112zM988.68224 490.02496l-74.00448 66.41664c-1.40288 1.23904-3.20512 1.93536-5.07904 1.93536L606.01344 558.37696c-4.18816 0-7.59808-3.38944-7.59808-7.59808l0-118.90688c0-4.18816 3.40992-7.58784 7.59808-7.58784l303.58528 0c1.57696 0 3.11296 0.49152 4.39296 1.39264l74.00448 52.50048c1.88416 1.34144 3.05152 3.46112 3.19488 5.75488C991.31392 486.23616 990.39232 488.46848 988.68224 490.02496zM42.47552 443.0336c0.13312-2.304 1.31072-4.41344 3.19488-5.75488l74.00448-52.50048c1.28-0.90112 2.816-1.40288 4.39296-1.40288l303.59552 0c4.18816 0 7.58784 3.39968 7.58784 7.58784L435.2512 509.89056c0 4.1984-3.39968 7.59808-7.58784 7.59808L124.0576 517.48864c-1.87392 0-3.67616-0.69632-5.0688-1.9456l-74.00448-66.42688C43.27424 447.56992 42.35264 445.3376 42.47552 443.0336zM427.65312 684.89216 124.0576 684.89216c-1.87392 0-3.67616-0.67584-5.0688-1.93536l-74.00448-66.42688c-1.72032-1.52576-2.64192-3.76832-2.5088-6.07232 0.13312-2.31424 1.31072-4.43392 3.19488-5.76512l74.00448-52.49024c1.28-0.91136 2.816-1.41312 4.39296-1.41312l303.59552 0c4.18816 0 7.58784 3.40992 7.58784 7.59808L435.2512 677.30432C435.24096 681.51296 431.84128 684.89216 427.65312 684.89216z"  horiz-adv-x="1024" />

    
    <glyph glyph-name="rili" unicode="&#59222;" d="M177.81122 15.299707c-36.96489 0-67.041906 30.502711-67.041906 67.889203V693.052798L88.478635 670.460244h757.993601c36.769438 0 66.756403-30.462802 66.756403-67.684542V94.369553c0-12.477172 9.980305-22.591531 22.290679-22.59153 12.310374 0 22.290679 10.115382 22.290679 22.59153V602.775702c0 62.152549-49.925063 112.868627-111.337761 112.868627H88.478635c-12.310374 0-22.290679-10.115382-22.290678-22.591531v-609.862865c0-62.333674 50.030463-113.073288 111.62224-113.073288h657.400554c12.310374 0 22.290679 10.114358 22.290679 22.591531s-9.980305 22.591531-22.290679 22.591531H177.81122z m133.573181 587.385944c0-12.477172 9.980305-22.591531 22.290679-22.591531 12.310374 0 22.290679 10.115382 22.290679 22.591531v169.43904c0 12.477172-9.980305 22.591531-22.290679 22.591531-12.310374 0-22.290679-10.115382-22.290679-22.591531v-169.43904z m378.939495 11.295254c0-12.477172 9.980305-22.591531 22.290679-22.591531s22.290679 10.115382 22.290679 22.591531V783.419945c0 12.477172-9.980305 22.591531-22.290679 22.591531s-22.290679-10.115382-22.290679-22.591531v-169.43904zM355.965759 467.134419c12.310374 0 22.290679 10.115382 22.290679 22.591531 0 12.477172-9.980305 22.591531-22.290679 22.591531H233.367537c-12.310374 0-22.290679-10.114358-22.290679-22.591531 0-12.477172 9.980305-22.591531 22.290679-22.591531h122.598222z m245.195422 0c12.310374 0 22.290679 10.115382 22.290679 22.591531 0 12.477172-9.980305 22.591531-22.290679 22.591531H478.563982c-12.310374 0-22.290679-10.114358-22.290679-22.591531 0-12.477172 9.980305-22.591531 22.290679-22.591531h122.597199z m222.905766 0c12.310374 0 22.290679 10.115382 22.290679 22.591531 0 12.477172-9.980305 22.591531-22.290679 22.591531H701.468724c-12.310374 0-22.290679-10.114358-22.290679-22.591531 0-12.477172 9.980305-22.591531 22.290679-22.591531h122.598223z m-468.101188-135.550209c12.310374 0 22.290679 10.114358 22.290679 22.591531 0 12.477172-9.980305 22.591531-22.290679 22.591531H233.367537c-12.310374 0-22.290679-10.115382-22.290679-22.591531 0-12.477172 9.980305-22.591531 22.290679-22.591531h122.598222z m245.195422 0c12.310374 0 22.290679 10.114358 22.290679 22.591531 0 12.477172-9.980305 22.591531-22.290679 22.591531H478.563982c-12.310374 0-22.290679-10.115382-22.290679-22.591531 0-12.477172 9.980305-22.591531 22.290679-22.591531h122.597199z m222.905766 0c12.310374 0 22.290679 10.114358 22.290679 22.591531 0 12.477172-9.980305 22.591531-22.290679 22.591531H701.468724c-12.310374 0-22.290679-10.115382-22.290679-22.591531 0-12.477172 9.980305-22.591531 22.290679-22.591531h122.598223z m-468.101188-135.550209c12.310374 0 22.290679 10.115382 22.290679 22.591531 0 12.477172-9.980305 22.591531-22.290679 22.591531H233.367537c-12.310374 0-22.290679-10.114358-22.290679-22.591531 0-12.477172 9.980305-22.591531 22.290679-22.591531h122.598222z m245.195422 0c12.310374 0 22.290679 10.115382 22.290679 22.591531 0 12.477172-9.980305 22.591531-22.290679 22.591531H478.563982c-12.310374 0-22.290679-10.114358-22.290679-22.591531 0-12.477172 9.980305-22.591531 22.290679-22.591531h122.597199z m222.905766 0c12.310374 0 22.290679 10.115382 22.290679 22.591531 0 12.477172-9.980305 22.591531-22.290679 22.591531H701.468724c-12.310374 0-22.290679-10.114358-22.290679-22.591531 0-12.477172 9.980305-22.591531 22.290679-22.591531h122.598223z"  horiz-adv-x="1024" />

    
    <glyph glyph-name="bianji3" unicode="&#59171;" d="M243.2 271.7696v-121.7792h121.7792L880.5888 665.6l-121.7792 121.7792L243.2 271.7696zM758.784 896l230.4-230.4L396.7744 73.216h-230.4v230.4L758.8352 896zM0-51.2h1024v-76.8H0z"  horiz-adv-x="1024" />

    
    <glyph glyph-name="yiguanbi" unicode="&#59172;" d="M601.6 345.6c0-32-32-57.6-64-57.6s-64 25.6-64 57.6V838.4c0 32 32 57.6 64 57.6s64-25.6 64-57.6v-492.8zM0 377.6c0 179.2 96 339.2 236.8 428.8 25.6 19.2 64 6.4 83.2-19.2 19.2-25.6 6.4-64-19.2-83.2-102.4-70.4-179.2-192-179.2-326.4 0-211.2 172.8-384 390.4-384 211.2 0 384 172.8 390.4 384 0 140.8-76.8 262.4-192 332.8-32 19.2-38.4 51.2-19.2 83.2 12.8 25.6 51.2 32 76.8 12.8 153.6-83.2 256-243.2 256-428.8 0-275.2-230.4-505.6-512-505.6s-512 224-512 505.6"  horiz-adv-x="1024" />

    
    <glyph glyph-name="yiguanbi1" unicode="&#59173;" d="M857.83376895 847.88978481m61.2817864-61.28178636l0.03871533-0.03871538q61.28179003-61.28179003 0-122.56357633l-694.69469443-694.69469086q-61.28179003-61.28179003-122.56357641 0l-0.03871167 0.03871172q-61.28179003 61.28179003 0 122.56357636l694.69469085 694.69469449q61.28179003 61.28179003 122.56357633 0ZM163.08781638 847.88458954m-61.28178632-61.28178996l-0.03871539-0.03871173q-61.28179003-61.28179003 0-122.5635764l694.69469448-694.69469443q61.28179003-61.28179003 122.56357639 0l0.03871171 0.03871538q61.28179003 61.28179003 0 122.56357635l-694.69469081 694.69469083q-61.28179003 61.28179003-122.56357638 0Z"  horiz-adv-x="1024" />

    
    <glyph glyph-name="lajitong" unicode="&#59174;" d="M972.658 686.652c14.5-0.02 26.272 11.777 26.292 26.35 0.02 14.572-11.72 26.401-26.22 26.421L32.458 740.72c-14.501 0.02-26.273-11.777-26.292-26.35-0.02-14.572 11.719-26.402 26.22-26.422l940.272-1.295zM180.467-96.356v-26.659l26.526 0.274 626.369 6.473 25.986 0.269V606.603c0 14.572-11.755 26.386-26.256 26.386s-26.257-11.814-26.257-26.386v-696.486l25.987 26.384-626.369-6.473 26.527-26.384V613.33c0 14.573-11.756 26.386-26.257 26.386-14.5 0-26.256-11.813-26.256-26.386v-709.686zM656.41 48.921c0-14.573 11.756-26.386 26.257-26.386 14.5 0 26.256 11.813 26.256 26.386V523.868c0 14.573-11.755 26.386-26.256 26.386s-26.257-11.813-26.257-26.386v-474.947zM341.333 48.921c0-14.573 11.756-26.386 26.257-26.386 14.5 0 26.256 11.813 26.256 26.386V523.868c0 14.573-11.755 26.386-26.256 26.386s-26.257-11.813-26.257-26.386v-474.947zM498.872 48.921c0-14.573 11.755-26.386 26.256-26.386s26.257 11.813 26.257 26.386V523.868c0 14.573-11.756 26.386-26.257 26.386-14.5 0-26.256-11.813-26.256-26.386v-474.947zM392.148 779.278c0 14.658 11.61 26.358 26.253 26.358h204.525c14.483 0 26.253-11.798 26.253-26.186v-55.095h52.513V779.45c0 43.563-35.311 78.958-78.766 78.958H418.4c-43.677 0-78.766-35.359-78.766-79.13v-48.589h52.513v48.59z"  horiz-adv-x="1024" />

    
    <glyph glyph-name="dianjiliang" unicode="&#59167;" d="M791.272727-128C359.330909-128 0 243.712 0 384S359.330909 896 791.272727 896C1223.214545 896 1582.545455 524.288 1582.545455 384S1223.214545-128 791.272727-128z m0 930.909091C398.429091 802.909091 93.090909 468.712727 93.090909 384S398.429091-34.909091 791.272727-34.909091 1489.454545 299.287273 1489.454545 384 1184.116364 802.909091 791.272727 802.909091zM791.272727 151.272727A232.727273 232.727273 0 1 0 1024 384 233.006545 233.006545 0 0 0 791.272727 151.272727z m0 372.363637A139.636364 139.636364 0 1 1 930.909091 384 139.822545 139.822545 0 0 1 791.272727 523.636364z"  horiz-adv-x="1582" />

    
    <glyph glyph-name="bofang1" unicode="&#59168;" d="M512-128a512 512 0 1 0 512 512 512.57344 512.57344 0 0 0-512-512z m0 983.04a471.04 471.04 0 1 1 471.04-471.04A471.57248 471.57248 0 0 1 512 855.04zM409.6 512.26624v-256.53248a40.96 40.96 0 0 1 63.6928-34.07872l192.38912 128.26624a40.96 40.96 0 0 1 0 68.15744l-192.4096 128.26624A40.96 40.96 0 0 1 409.6 512.26624z"  horiz-adv-x="1024" />

    
    <glyph glyph-name="chushihua" unicode="&#59164;" d="M511.682434-128A468.457376 468.457376 0 0 0 44.559694 340.457376a66.73182 66.73182 0 0 0 133.46364 0A333.6591 333.6591 0 1 1 511.682434 675.451113a330.989827 330.989827 0 0 1-235.785764-98.095776 66.73182 66.73182 0 0 0-111.2197 66.73182l60.503517 203.309612a66.798552 66.798552 0 1 0 128.125094-37.814698l-9.564894-31.808835A468.234937 468.234937 0 1 0 511.682434-128zM600.658194 183.41516h-133.46364a66.73182 66.73182 0 0 0-66.73182 66.73182V472.58638a66.73182 66.73182 0 0 0 133.46364 0v-155.70758h66.73182a66.73182 66.73182 0 0 0 0-133.46364z"  horiz-adv-x="1024" />

    
    <glyph glyph-name="ceshiji" unicode="&#59166;" d="M536.332172 333.97898a75.330291 75.330291 0 0 0-29.985844 6.338471l-463.195967 207.95061a73.136205 73.136205 0 0 0 0 133.351681l463.195967 207.95061a73.136205 73.136205 0 0 0 59.971688 0l463.195966-207.95061a73.136205 73.136205 0 0 0 0-133.351681l-463.195966-207.95061a75.330291 75.330291 0 0 0-29.985844-6.338471zM251.832333 614.822008L536.332172 487.321224l284.499838 127.500784L536.332172 742.56658zM536.332172 102.868571a73.136205 73.136205 0 0 0-31.204781 7.069834l-463.195967 219.408615a73.184963 73.184963 0 0 0 62.409562 132.376532L536.332172 257.429752l431.259823 215.020443a73.136205 73.136205 0 0 0 65.33501-130.913807l-463.195966-230.866621a73.136205 73.136205 0 0 0-33.398867-7.801196zM536.332172-127.99805a73.136205 73.136205 0 0 0-31.204781 7.069833l-463.195967 219.408616a73.136205 73.136205 0 0 0 62.409562 131.888957L536.332172 26.319343l431.259823 215.264231a73.136205 73.136205 0 0 0 65.33501-130.913807l-463.195966-230.866621A73.136205 73.136205 0 0 0 536.332172-127.99805z"  horiz-adv-x="1073" />

    
    <glyph glyph-name="guolvqi" unicode="&#59163;" d="M908.6 761.3c6.5-15.5 3.8-28.8-8-39.7L620.9 441.9V21c0-15.8-7.4-27.1-22.1-33.5-4.9-2-9.7-2.9-14.2-2.9-10.3 0-18.7 3.6-25.5 10.7L413.8 140.8c-7.2 7.2-10.7 15.7-10.7 25.5V441.9L123.4 721.6c-11.7 11-14.3 24.2-8 39.7 6.5 14.8 17.5 22.1 33.5 22.1H875c16 0.1 27.2-7.3 33.6-22.1z"  horiz-adv-x="1024" />

    
    <glyph glyph-name="jiashang1" unicode="&#59161;" d="M512-128C228.693333-128 0 100.693333 0 384S228.693333 896 512 896s512-228.693333 512-512-228.693333-512-512-512z m0 989.866667C249.173333 861.866667 34.133333 646.826667 34.133333 384s215.04-477.866667 477.866667-477.866667 477.866667 215.04 477.866667 477.866667S774.826667 861.866667 512 861.866667zM699.733333 332.8h-375.466666c-20.48 0-34.133333 13.653333-34.133334 34.133333s13.653333 34.133333 34.133334 34.133334h375.466666c20.48 0 34.133333-13.653333 34.133334-34.133334s-13.653333-34.133333-34.133334-34.133333zM512 145.066667c-20.48 0-34.133333 13.653333-34.133333 34.133333V554.666667c0 20.48 13.653333 34.133333 34.133333 34.133333s34.133333-13.653333 34.133333-34.133333v-375.466667c0-20.48-13.653333-34.133333-34.133333-34.133333z"  horiz-adv-x="1024" />

    
    <glyph glyph-name="jianqu1" unicode="&#59160;" d="M512-128C228.693333-128 0 100.693333 0 384S228.693333 896 512 896s512-228.693333 512-512-228.693333-512-512-512z m0 989.866667C249.173333 861.866667 34.133333 646.826667 34.133333 384s215.04-477.866667 477.866667-477.866667 477.866667 215.04 477.866667 477.866667S774.826667 861.866667 512 861.866667zM699.733333 332.8h-375.466666c-20.48 0-34.133333 13.653333-34.133334 34.133333s13.653333 34.133333 34.133334 34.133334h375.466666c20.48 0 34.133333-13.653333 34.133334-34.133334s-13.653333-34.133333-34.133334-34.133333z"  horiz-adv-x="1024" />

    
    <glyph glyph-name="jiashang" unicode="&#59159;" d="M512-128C228.693333-128 0 100.693333 0 384S228.693333 896 512 896s512-228.693333 512-512-228.693333-512-512-512z m0 989.866667C249.173333 861.866667 34.133333 646.826667 34.133333 384s215.04-477.866667 477.866667-477.866667 477.866667 215.04 477.866667 477.866667S774.826667 861.866667 512 861.866667zM699.733333 332.8h-375.466666c-20.48 0-34.133333 13.653333-34.133334 34.133333s13.653333 34.133333 34.133334 34.133334h375.466666c20.48 0 34.133333-13.653333 34.133334-34.133334s-13.653333-34.133333-34.133334-34.133333zM512 145.066667c-20.48 0-34.133333 13.653333-34.133333 34.133333V554.666667c0 20.48 13.653333 34.133333 34.133333 34.133333s34.133333-13.653333 34.133333-34.133333v-375.466667c0-20.48-13.653333-34.133333-34.133333-34.133333z"  horiz-adv-x="1024" />

    
    <glyph glyph-name="jianqu" unicode="&#59158;" d="M512-128C228.693333-128 0 100.693333 0 384S228.693333 896 512 896s512-228.693333 512-512-228.693333-512-512-512z m0 989.866667C249.173333 861.866667 34.133333 646.826667 34.133333 384s215.04-477.866667 477.866667-477.866667 477.866667 215.04 477.866667 477.866667S774.826667 861.866667 512 861.866667zM699.733333 332.8h-375.466666c-20.48 0-34.133333 13.653333-34.133334 34.133333s13.653333 34.133333 34.133334 34.133334h375.466666c20.48 0 34.133333-13.653333 34.133334-34.133334s-13.653333-34.133333-34.133334-34.133333z"  horiz-adv-x="1024" />

    
    <glyph glyph-name="shanchu2" unicode="&#59157;" d="M512 384m-512 0a512 512 0 1 1 1024 0 512 512 0 1 1-1024 0ZM665.6 179.2c-15.36 0-25.6 5.12-35.84 15.36L512 312.32l-117.76-117.76c-20.48-20.48-51.2-20.48-71.68 0s-20.48 51.2 0 71.68L440.32 384 322.56 501.76c-20.48 20.48-20.48 51.2 0 71.68s51.2 20.48 71.68 0L512 455.68l117.76 117.76c20.48 20.48 51.2 20.48 71.68 0s20.48-51.2 0-71.68L583.68 384l117.76-117.76c20.48-20.48 20.48-51.2 0-71.68-10.24-10.24-20.48-15.36-35.84-15.36z"  horiz-adv-x="1024" />

    
    <glyph glyph-name="shijuan1" unicode="&#59156;" d="M352.256 865.28h436.224c112.64 0 204.8-92.16 204.8-204.8v-552.96c0-112.64-92.16-204.8-204.8-204.8H352.256c-112.64 0-204.8 92.16-204.8 204.8v552.96c0 112.64 90.112 204.8 204.8 204.8zM788.48-128H352.256c-129.024 0-235.52 106.496-235.52 235.52v552.96C116.736 789.504 221.184 896 352.256 896h436.224C917.504 896 1024 789.504 1024 660.48v-552.96C1024-21.504 917.504-128 788.48-128zM352.256 834.56c-96.256 0-174.08-77.824-174.08-174.08v-552.96c0-96.256 77.824-174.08 174.08-174.08h436.224c96.256 0 174.08 77.824 174.08 174.08v552.96C962.56 756.736 884.736 834.56 788.48 834.56H352.256zM311.296 564.224m-40.96 0a40.96 40.96 0 1 1 81.92 0 40.96 40.96 0 1 1-81.92 0ZM311.296 332.8m-40.96 0a40.96 40.96 0 1 1 81.92 0 40.96 40.96 0 1 1-81.92 0ZM841.728 545.792H471.04c-16.384 0-30.72 14.336-30.72 30.72s14.336 30.72 30.72 30.72h370.688c16.384 0 30.72-14.336 30.72-30.72s-12.288-30.72-30.72-30.72zM841.728 314.368H471.04c-16.384 0-30.72 14.336-30.72 30.72s14.336 30.72 30.72 30.72h370.688c16.384 0 30.72-14.336 30.72-30.72s-12.288-30.72-30.72-30.72zM819.2-97.28c-26.624 32.768-43.008 61.44-47.104 88.064-4.096 24.576-2.048 59.392 8.192 104.448v6.144c0 16.384-14.336 30.72-30.72 30.72H61.44c-16.384 0-30.72-14.336-30.72-30.72v-83.968c0-63.488 51.2-114.688 114.688-114.688H819.2zM882.688-128h-737.28C65.536-128 0-62.464 0 17.408v83.968c0 34.816 26.624 61.44 61.44 61.44h688.128c34.816 0 61.44-26.624 61.44-61.44 0-4.096 0-8.192-2.048-12.288-8.192-43.008-10.24-73.728-8.192-94.208 4.096-18.432 16.384-43.008 40.96-73.728l40.96-49.152zM61.44 101.376v-83.968C61.44-29.696 98.304-66.56 145.408-66.56h614.4c-10.24 18.432-16.384 34.816-18.432 51.2-4.096 26.624-2.048 63.488 8.192 116.736H61.44z"  horiz-adv-x="1024" />

    
    <glyph glyph-name="zuoyoutuodong" unicode="&#59154;" d="M558.848-76.288L35.84 354.304a38.4 38.4 0 0 0 0 59.392L558.848 844.288a38.4 38.4 0 0 0 62.72-29.696v-221.44a38.4 38.4 0 0 1 38.4-38.4h728.064a38.4 38.4 0 0 1 38.4 38.4V814.464a38.4 38.4 0 0 0 62.72 29.696l522.88-430.592a38.4 38.4 0 0 0 0-59.392l-522.88-430.592a38.4 38.4 0 0 0-62.72 29.696v221.44a38.4 38.4 0 0 1-38.4 38.4H659.968a38.4 38.4 0 0 1-38.4-38.4v-221.44a38.4 38.4 0 0 0-62.72-29.696z"  horiz-adv-x="2048" />

    
    <glyph glyph-name="shangxiatuodong" unicode="&#59155;" d="M742.144 151.424L526.848-110.08a19.2 19.2 0 0 0-29.696 0L281.856 151.424a19.2 19.2 0 0 0 14.848 31.36h110.72a19.2 19.2 0 0 1 19.2 19.2V566.016a19.2 19.2 0 0 1-19.2 19.2H296.768a19.2 19.2 0 0 0-14.848 31.36L497.152 878.08a19.2 19.2 0 0 0 29.696 0l215.296-261.44a19.2 19.2 0 0 0-14.848-31.36h-110.72a19.2 19.2 0 0 1-19.2-19.2v-364.032a19.2 19.2 0 0 1 19.2-19.2h110.72a19.2 19.2 0 0 0 14.848-31.36z"  horiz-adv-x="1024" />

    
    <glyph glyph-name="bianzu2" unicode="&#59153;" d="M512 353.882353m-240.941176 0a240.941176 240.941176 0 1 1 481.882352 0 240.941176 240.941176 0 1 1-481.882352 0ZM512 534.588235m-361.411765 0a361.411765 361.411765 0 1 1 722.82353 0 361.411765 361.411765 0 1 1-722.82353 0ZM402.552471 426.285176L279.491765 527.600941a9.035294 9.035294 0 0 0 0 13.974588l123.030588 101.315765a9.035294 9.035294 0 0 0 14.757647-6.987294v-52.103529a9.035294 9.035294 0 0 1 9.035294-9.035295h171.309177a9.035294 9.035294 0 0 1 9.035294 9.035295v52.103529a9.035294 9.035294 0 0 0 14.757647 6.987294l123.030588-101.315765a9.035294 9.035294 0 0 0 0-13.974588l-123.030588-101.315765a9.035294 9.035294 0 0 0-14.757647 6.987295v52.103529a9.035294 9.035294 0 0 1-9.035294 9.035294H426.345412a9.035294 9.035294 0 0 1-9.035294-9.035294v-52.103529a9.035294 9.035294 0 0 0-14.757647-6.987295z"  horiz-adv-x="1024" />

    
    <glyph glyph-name="fuzhi3" unicode="&#59152;" d="M648.533333-128h-477.866666C75.093333-128 0-52.906667 0 42.666667v477.866666C0 616.106667 75.093333 691.2 170.666667 691.2h477.866666C744.106667 691.2 819.2 616.106667 819.2 520.533333v-477.866666c0-95.573333-75.093333-170.666667-170.666667-170.666667z m-477.866666 750.933333C116.053333 622.933333 68.266667 575.146667 68.266667 520.533333v-477.866666c0-54.613333 47.786667-102.4 102.4-102.4h477.866666c54.613333 0 102.4 47.786667 102.4 102.4v477.866666c0 54.613333-47.786667 102.4-102.4 102.4h-477.866666zM955.733333 110.933333c-20.48 0-34.133333 13.653333-34.133333 34.133334V691.2c0 54.613333-47.786667 102.4-102.4 102.4H273.066667c-20.48 0-34.133333 13.653333-34.133334 34.133333s13.653333 34.133333 34.133334 34.133334h546.133333c95.573333 0 170.666667-75.093333 170.666667-170.666667v-546.133333c0-20.48-13.653333-34.133333-34.133334-34.133334z"  horiz-adv-x="1024" />

    
    <glyph glyph-name="jianhao" unicode="&#59151;" d="M768 341.333333H256c-25.6 0-42.666667 17.066667-42.666667 42.666667s17.066667 42.666667 42.666667 42.666667h512c25.6 0 42.666667-17.066667 42.666667-42.666667s-17.066667-42.666667-42.666667-42.666667z"  horiz-adv-x="1024" />

    
    <glyph glyph-name="shitilan" unicode="&#59150;" d="M816.118519-128H184.019753c-69.530864 0-126.419753 56.888889-126.419753 126.419753V756.938272C57.6 826.469136 114.488889 883.358025 184.019753 883.358025h568.888889l189.62963-189.62963v-695.308642c0-69.530864-56.888889-126.419753-126.419753-126.419753zM727.624691 820.148148H184.019753c-37.925926 0-63.209877-25.283951-63.209876-63.209876v-758.518519c0-37.925926 25.283951-63.209877 63.209876-63.209876h632.098766c37.925926 0 63.209877 25.283951 63.209876 63.209876V668.444444L727.624691 820.148148zM955.180247 662.123457h-189.62963c-25.283951 0-44.246914 18.962963-44.246913 44.246913l6.320987 189.62963 227.555556-233.876543z m-170.666667 82.172839v-18.962963h18.962963l-18.962963 18.962963zM670.735802 567.308642H329.402469c-18.962963 0-31.604938 12.641975-31.604938 31.604938S310.439506 630.518519 329.402469 630.518519h341.333333c18.962963 0 31.604938-12.641975 31.604939-31.604939s-12.641975-31.604938-31.604939-31.604938zM670.735802 314.469136H329.402469c-18.962963 0-31.604938 12.641975-31.604938 31.604938S310.439506 377.679012 329.402469 377.679012h341.333333c18.962963 0 31.604938-12.641975 31.604939-31.604938s-12.641975-31.604938-31.604939-31.604938zM670.735802 61.62963H329.402469c-18.962963 0-31.604938 12.641975-31.604938 31.604938s12.641975 31.604938 31.604938 31.604938h341.333333c18.962963 0 31.604938-12.641975 31.604939-31.604938s-12.641975-31.604938-31.604939-31.604938z"  horiz-adv-x="1024" />

    
    <glyph glyph-name="shanchu1" unicode="&#59149;" d="M672-96H358.4c-76.8 0-140.8 57.6-153.6 140.8L96 569.6c0 19.2 6.4 32 25.6 38.4 19.2 6.4 32-6.4 38.4-25.6l102.4-524.8c12.8-51.2 51.2-89.6 96-89.6h313.6c44.8 0 83.2 38.4 96 89.6l102.4 524.8c6.4 19.2 19.2 25.6 38.4 25.6 19.2-6.4 25.6-19.2 25.6-38.4L832 44.8c-19.2-83.2-83.2-140.8-160-140.8zM608 704v6.4c0 51.2-44.8 89.6-96 89.6S416 755.2 416 704h-64C352 793.6 422.4 864 512 864c83.2 0 153.6-64 160-153.6V704h-64zM384 38.4c-12.8 0-25.6 12.8-32 25.6L256 576c0 19.2 12.8 32 25.6 38.4 19.2 0 38.4-12.8 38.4-25.6l96-512c0-19.2-6.4-38.4-32-38.4 6.4 0 0 0 0 0zM640 38.4s-6.4 0 0 0c-25.6 6.4-32 19.2-32 38.4l96 512c0 19.2 19.2 32 38.4 25.6 12.8-6.4 25.6-19.2 25.6-38.4l-96-512c-6.4-12.8-19.2-25.6-32-25.6zM512 38.4c-19.2 0-32 12.8-32 32v512c0 19.2 12.8 32 32 32s32-12.8 32-32v-512c0-19.2-12.8-32-32-32zM992 640H32C12.8 640 0 652.8 0 672S12.8 704 32 704h960c19.2 0 32-12.8 32-32s-12.8-32-32-32z"  horiz-adv-x="1024" />

    
    <glyph glyph-name="jiexi" unicode="&#59148;" d="M506.311111-99.555556c-73.955556 0-147.911111 17.066667-216.177778 51.2-11.377778 5.688889-22.755556 22.755556-11.377777 39.822223 5.688889 11.377778 22.755556 22.755556 39.822222 11.377777 56.888889-28.444444 125.155556-45.511111 187.733333-45.511111 238.933333 0 432.355556 187.733333 432.355556 426.666667 0 85.333333-22.755556 164.977778-73.955556 233.244444-11.377778 11.377778-5.688889 28.444444 5.688889 39.822223 11.377778 11.377778 28.444444 5.688889 39.822222-5.688889 51.2-79.644444 79.644444-170.666667 79.644445-267.377778 5.688889-267.377778-216.177778-483.555556-483.555556-483.555556z m-301.511111 125.155556c-5.688889 0-11.377778 0-17.066667 5.688889C85.333333 122.311111 28.444444 253.155556 28.444444 389.688889 28.444444 651.377778 238.933333 867.555556 500.622222 867.555556c119.466667 0 233.244444-45.511111 318.577778-125.155556 11.377778-11.377778 11.377778-28.444444 0-39.822222-11.377778-11.377778-28.444444-11.377778-39.822222 0-79.644444 73.955556-176.355556 113.777778-278.755556 113.777778-227.555556 0-415.288889-187.733333-415.288889-420.977778 0-125.155556 51.2-238.933333 142.222223-318.577778 11.377778-11.377778 11.377778-28.444444 0-39.822222-5.688889-11.377778-11.377778-11.377778-22.755556-11.377778zM512 31.288889c-56.888889 0-102.4 45.511111-102.4 102.4v34.133333c-62.577778 34.133333-102.4 102.4-102.4 170.666667C307.2 446.577778 398.222222 537.6 512 537.6s204.8-91.022222 204.8-199.111111c0-68.266667-39.822222-136.533333-102.4-170.666667v-34.133333c0-51.2-39.822222-96.711111-91.022222-102.4H512z m0 449.422222c-79.644444 0-147.911111-62.577778-147.911111-142.222222 0-51.2 28.444444-96.711111 73.955555-125.155556l28.444445-17.066666v-68.266667c0-22.755556 17.066667-45.511111 45.511111-45.511111h5.688889c22.755556 0 39.822222 22.755556 39.822222 45.511111v68.266667l28.444445 17.066666c45.511111 22.755556 73.955556 73.955556 73.955555 125.155556 0 73.955556-68.266667 142.222222-147.911111 142.222222zM676.977778 497.777778c-5.688889 0-17.066667 0-22.755556 5.688889-11.377778 11.377778-11.377778 28.444444 0 39.822222L739.555556 628.622222c11.377778 11.377778 28.444444 11.377778 39.822222 0s11.377778-28.444444 0-39.822222l-85.333334-85.333333c-5.688889 0-11.377778-5.688889-17.066666-5.688889zM347.022222 497.777778c-5.688889 0-11.377778 5.688889-17.066666 5.688889L238.933333 594.488889c-11.377778 11.377778-11.377778 28.444444 0 39.822222s28.444444 11.377778 39.822223 0l85.333333-85.333333c11.377778-11.377778 11.377778-28.444444 0-39.822222 0-5.688889-5.688889-11.377778-17.066667-11.377778zM512 560.355556c-17.066667 0-28.444444 11.377778-28.444444 28.444444V685.511111c0 17.066667 11.377778 28.444444 28.444444 28.444445s28.444444-11.377778 28.444444-28.444445v-102.4c0-11.377778-11.377778-22.755556-28.444444-22.755555z"  horiz-adv-x="1024" />

    
    <glyph glyph-name="gongkai" unicode="&#59147;" d="M512 42.666667C432.355556 42.666667 369.777778 105.244444 369.777778 184.888889S432.355556 327.111111 512 327.111111s142.222222-62.577778 142.222222-142.222222S591.644444 42.666667 512 42.666667z m0 227.555555c-45.511111 0-85.333333-39.822222-85.333333-85.333333S466.488889 99.555556 512 99.555556 597.333333 139.377778 597.333333 184.888889 557.511111 270.222222 512 270.222222zM256 469.333333c-17.066667 0-28.444444 11.377778-28.444444 28.444445V662.755556C244.622222 782.222222 352.711111 867.555556 483.555556 867.555556c142.222222 0 250.311111-96.711111 256-221.866667v-5.688889c0-17.066667-11.377778-28.444444-28.444445-28.444444s-28.444444 11.377778-28.444444 28.444444c-5.688889 96.711111-91.022222 170.666667-199.111111 170.666667-102.4 0-187.733333-68.266667-199.111112-153.6V497.777778c0-17.066667-11.377778-28.444444-28.444444-28.444445zM739.555556-128h-455.111112C176.355556-128 85.333333-36.977778 85.333333 71.111111v227.555556C85.333333 406.755556 176.355556 497.777778 284.444444 497.777778h455.111112c108.088889 0 199.111111-91.022222 199.111111-199.111111v-227.555556c0-108.088889-91.022222-199.111111-199.111111-199.111111z m-455.111112 568.888889C204.8 440.888889 142.222222 378.311111 142.222222 298.666667v-227.555556C142.222222-8.533333 204.8-71.111111 284.444444-71.111111h455.111112c79.644444 0 142.222222 62.577778 142.222222 142.222222v227.555556C881.777778 378.311111 819.2 440.888889 739.555556 440.888889h-455.111112z"  horiz-adv-x="1024" />

    
    <glyph glyph-name="bianji2" unicode="&#59145;" d="M704.752941-97.882353H198.776471c-78.305882 0-138.541176 60.235294-138.541177 132.517647V667.105882c0 72.282353 66.258824 132.517647 138.541177 132.517647h319.247058c18.070588 0 30.117647-12.047059 30.117647-30.117647s-12.047059-24.094118-30.117647-24.094117H198.776471c-42.164706 0-78.305882-36.141176-78.305883-72.282353v-632.470588c0-42.164706 36.141176-72.282353 78.305883-72.282353h499.952941c42.164706 0 78.305882 36.141176 78.305882 72.282353V293.647059c0 18.070588 12.047059 30.117647 30.117647 30.117647s30.117647-12.047059 30.117647-30.117647v-259.011765c6.023529-72.282353-60.235294-132.517647-132.517647-132.517647zM313.223529 161.129412c-24.094118 0-54.211765 18.070588-60.235294 48.188235v30.117647l36.141177 126.494118 445.741176 445.741176c48.188235 48.188235 120.470588 48.188235 168.658824 0 48.188235-48.188235 48.188235-120.470588 0-168.658823l-445.741177-445.741177-126.494117-30.117647c-6.023529-6.023529-12.047059-6.023529-18.070589-6.023529z m36.141177 174.682353l-36.141177-114.447059 120.470589 30.117647 433.694117 433.694118c12.047059 12.047059 18.070588 24.094118 18.070589 42.164705 0 18.070588-6.023529 30.117647-18.070589 42.164706-24.094118 24.094118-60.235294 24.094118-84.329411 0L349.364706 335.811765z"  horiz-adv-x="1024" />

    
    <glyph glyph-name="fangda" unicode="&#59143;" d="M603.022222 418.133333c-17.066667 0-28.444444 5.688889-39.822222 17.066667-22.755556 22.755556-22.755556 56.888889 0 79.644444L830.577778 782.222222h-182.044445c-34.133333 0-56.888889 22.755556-56.888889 56.888889s22.755556 56.888889 56.888889 56.888889H967.111111c5.688889 0 17.066667 0 22.755556-5.688889 5.688889 0 11.377778-5.688889 17.066666-11.377778 5.688889-5.688889 11.377778-11.377778 11.377778-17.066666 5.688889-5.688889 5.688889-17.066667 5.688889-22.755556v-318.577778c0-34.133333-22.755556-56.888889-56.888889-56.888889s-56.888889 22.755556-56.888889 56.888889V702.577778l-267.377778-267.377778c-11.377778-11.377778-22.755556-17.066667-39.822222-17.066667zM375.466667-128H56.888889c-5.688889 0-17.066667 0-22.755556 5.688889-5.688889 0-11.377778 5.688889-17.066666 11.377778-5.688889 5.688889-11.377778 11.377778-11.377778 17.066666-5.688889 5.688889-5.688889 17.066667-5.688889 22.755556v318.577778c0 34.133333 22.755556 56.888889 56.888889 56.888889s56.888889-22.755556 56.888889-56.888889v-182.044445l267.377778 267.377778c22.755556 22.755556 56.888889 22.755556 79.644444 0s22.755556-56.888889 0-79.644444L193.422222-14.222222h182.044445c34.133333 0 56.888889-22.755556 56.888889-56.888889s-22.755556-56.888889-56.888889-56.888889z"  horiz-adv-x="1024" />

    
    <glyph glyph-name="suoxiao2" unicode="&#59137;" d="M921.6 418.133333h-318.577778c-5.688889 0-17.066667 0-22.755555 5.688889-5.688889 0-11.377778 5.688889-17.066667 11.377778-5.688889 5.688889-11.377778 11.377778-11.377778 17.066667 0 5.688889-5.688889 11.377778-5.688889 22.755555V793.6c0 34.133333 22.755556 56.888889 56.888889 56.888889s56.888889-22.755556 56.888889-56.888889V611.555556L927.288889 878.933333c22.755556 22.755556 56.888889 22.755556 79.644444 0s22.755556-56.888889 0-79.644444L739.555556 531.911111h182.044444c34.133333 0 56.888889-22.755556 56.888889-56.888889s-22.755556-56.888889-56.888889-56.888889zM56.888889-128c-17.066667 0-28.444444 5.688889-39.822222 17.066667-22.755556 22.755556-22.755556 56.888889 0 79.644444L284.444444 236.088889H102.4c-34.133333 0-56.888889 22.755556-56.888889 56.888889s22.755556 56.888889 56.888889 56.888889h318.577778c5.688889 0 17.066667 0 22.755555-5.688889 5.688889 0 11.377778-5.688889 17.066667-11.377778 5.688889-5.688889 11.377778-11.377778 11.377778-17.066667 0-5.688889 5.688889-11.377778 5.688889-22.755555v-318.577778c0-34.133333-22.755556-56.888889-56.888889-56.888889s-56.888889 22.755556-56.888889 56.888889V156.444444l-267.377778-267.377777c-11.377778-11.377778-22.755556-17.066667-39.822222-17.066667z"  horiz-adv-x="1024" />

    
    <glyph glyph-name="jiantou9" unicode="&#59136;" d="M944.083879 606.463698c14.264888-18.286482 15.462157-41.208541 2.670829-51.196009l-417.191704-325.421604c-2.885723-2.261507-12.156878-7.828292-13.732769-9.578146-15.544021-17.181311-37.893029-22.338774-49.947576-11.461029l-392.908648 354.309538c-12.054547 10.887978-9.271154 33.666774 6.272867 50.889017 15.544021 17.21201 37.893029 22.349007 49.988508 11.471262l357.584118-322.443783 408.258241 318.463122C907.910005 631.483534 929.84969 624.739946 944.083879 606.463698z"  horiz-adv-x="1024" />

    
    <glyph glyph-name="changyongtubiao-xianxingdaochu-zhuanqu-" unicode="&#59212;" d="M904.5504 218.7264L531.456 591.8208a30.72 30.72 0 0 1-43.4688 0l-373.0944-373.0944a30.72 30.72 0 1 1 43.4176-43.4688l351.4368 351.3856 351.3856-351.3856a30.72 30.72 0 1 1 43.4176 43.4688z"  horiz-adv-x="1024" />

    
    <glyph glyph-name="wenti" unicode="&#59356;" d="M1001.92929543 519.50293769l-391.49453142-158.74738807h-0.18530883a40.15011728 40.15011728 0 0 0-30.94647499 0h-0.24707773L187.56137103 519.50293769A39.65596257 39.65596257 0 0 0 162.54475911 556.19396836c0 16.49243317 10.31549167 30.69939728 25.01661192 36.62926107L579.05590247 751.57061752l0.24707772 0.06176959a41.20019777 41.20019777 0 0 0 30.94647498 0l0.18530884-0.0617696 391.49453143-158.74738808a39.53242335 39.53242335 0 0 0 25.01661192-36.62926107 39.77950107 39.77950107 0 0 0-25.01661193-36.69103068z m0.37061623-172.08958125l-391.43276182-158.74738807h-0.24707772a40.02657879 40.02657879 0 0 0-30.94647572 0H579.48828828L187.99375685 347.41335644000003A39.53242335 39.53242335 0 0 0 162.91537532 384.04261751c0 21.98991041 18.09843798 39.71773147 40.52073423 39.71773219 5.49747796 0 10.68610789-1.11184938 15.44235341-3.02670151v-0.06176888h0.247077l375.99040985-152.38513918 375.99040914 152.44690806a41.07665855 41.07665855 0 0 0 15.50412229 3.08847113h0.18530812a40.15011728 40.15011728 0 0 0 40.52073423-39.71773219 39.90304029 39.90304029 0 0 0-25.01661193-36.69103068zM203.43610956 251.60899884000003c5.49747796 0 10.68610789-1.11184938 15.4423534-3.08847039h0.247077l375.99040985-152.38513845 375.99040914 152.44690807a41.07665855 41.07665855 0 0 0 15.50412229 3.08847039l0.1235385-0.06176962c22.42229624 0 40.52073423-17.72782104 40.52073424-39.71773145a39.71773147 39.71773147 0 0 0-25.07838082-36.62926107l-391.43276254-158.74738808h-0.18530811a40.58250384 40.58250384 0 0 0-30.946475 0h-0.24707771L187.87021764 175.26200631999995a39.53242335 39.53242335 0 0 0-25.0166112 36.62926107 40.15011728 40.15011728 0 0 0 40.58250311 39.71773145z"  horiz-adv-x="1194" />

    
    <glyph glyph-name="chuangjianzhe1" unicode="&#59098;" d="M512.000731 344.649143c150.016 0 271.652571 123.392 271.652572 275.675428V827.099429A68.461714 68.461714 0 0 1 715.776731 896H512.000731C361.984731 896 240.34816 772.534857 240.34816 620.2514289999999c0-152.137143 121.636571-275.602286 271.652571-275.602286zM240.34816 285.549714h543.305143c112.566857 0 203.776-92.598857 203.776-206.774857v-137.874286c0-38.034286-30.427429-68.900571-67.949714-68.900571H104.595017A68.461714 68.461714 0 0 0 36.57216-59.099428999999986v137.874286c0 114.176 91.209143 206.774857 203.776 206.774857z"  horiz-adv-x="1024" />

    
    <glyph glyph-name="shu1" unicode="&#59100;" d="M0 894.695638m61.279822 0l122.480878 0q61.279822 0 61.279821-61.279822l0-857.602442q0-61.279822-61.279821-61.279822l-122.480878 0q-61.279822 0-61.279822 61.279822l0 857.602442q0 61.279822 61.279822 61.279822ZM306.320343 894.695638m61.279822 0l122.480878 0q61.279822 0 61.279821-61.279822l0-857.602442q0-61.279822-61.279821-61.279822l-122.480878 0q-61.279822 0-61.279822 61.279822l0 857.602442q0 61.279822 61.279822 61.279822ZM658.009809 862.086581L776.394863 893.907979a61.279822 61.279822 0 0 0 75.063843-43.32121l221.962131-828.459082a61.279822 61.279822 0 0 0-43.321211-74.985078l-118.385054-31.742632a61.279822 61.279822 0 0 0-74.985077 43.32121L614.688598 787.101503a61.279822 61.279822 0 0 0 43.321211 75.063844z"  horiz-adv-x="1102" />

    
    <glyph glyph-name="biaoqian2" unicode="&#59101;" d="M753.37797 627.478158l256.957652-453.093464c25.58611-45.104657 12.939262-102.052029-27.706103-131.878123l-8.479968-5.555841-256.592135-150.884949c-44.373626-26.097833-100.151346-13.158571-129.538822 28.144722l-5.482738 8.626174-25.293698 44.592935a25.58611 25.58611 0 0 0-3.289643 14.328222l0.804135 4.897913 120.474029 457.772066 51.39153 179.833805a14.620635 14.620635 0 0 0 26.755761 3.21654zM359.644283-123.437631a98.61618 98.61618 0 0 1 120.98575 71.129387l166.163511 631.611411C682.17548 713.520592 603.955085 851.393175 472.150065 887.359936 340.418148 923.326697 205.031073 843.717342 169.72224 709.499917L3.485626 77.961609a100.809275 100.809275 0 0 1 69.886633-123.251949l286.272024-78.074188z m35.820554 719.262115a88.235529 88.235529 0 0 0-61.114252 107.827179A86.261744 86.261744 0 0 0 440.203979 765.862463c46.054999-12.573746 73.468688-60.82184 61.114252-107.754076a86.261744 86.261744 0 0 0-105.853394-62.283903z"  horiz-adv-x="1024" />

    
    <glyph glyph-name="jilu1" unicode="&#59102;" d="M78.769231 204.248615v-302.867692c0-16.226462 13.154462-29.380923 29.380923-29.380923h886.468923a29.380923 29.380923 0 0 1 29.380923 29.380923V571.234462a29.380923 29.380923 0 0 1-52.932923 17.644307L676.233846 194.56a29.380923 29.380923 0 0 0-41.353846-5.828923L468.440615 315.313231a29.380923 29.380923 0 0 1-41.747692-6.301539L298.535385 128.315077a29.380923 29.380923 0 0 0-42.535385-5.828923L126.739692 227.170462a29.380923 29.380923 0 0 1-47.891692-22.843077zM225.043692 265.846154a78.690462 78.690462 0 0 0-48.679384 16.856615L30.089846 397.705846a78.769231 78.769231 0 0 0 97.358769 123.825231l81.762462-64.196923 131.544615 182.272a78.769231 78.769231 0 0 0 113.112616 15.36L601.560615 536.812308 751.458462 711.916308l-3.072-0.393846A78.769231 78.769231 0 1 0 727.591385 867.643077l207.241846 27.648a78.769231 78.769231 0 0 0 70.262154-129.260308L671.665231 376.359385a78.690462 78.690462 0 0 0-109.016616-10.24l-142.572307 114.136615-131.15077-181.720615a78.769231 78.769231 0 0 0-63.803076-32.689231z"  horiz-adv-x="1024" />

    
    <glyph glyph-name="tuijian1" unicode="&#59103;" d="M729.526857-119.442286a99.474286 99.474286 0 0 0-40.96 9.216c-66.706286 30.72-165.595429 77.385143-206.262857 96.768-69.046857-31.670857-138.093714-63.488-207.140571-95.378285-31.744-13.750857-62.683429-11.922286-85.577143 4.388571-21.577143 15.36-32.256 41.837714-29.403429 72.411429 8.192 71.533714 21.942857 169.398857 27.062857 205.750857-57.197714 59.172571-113.590857 119.222857-169.033143 179.931428a67.437714 67.437714 0 0 0-14.116571 69.266286c10.020571 26.331429 35.84 45.056 69.339429 49.810286l219.355428 39.131428C313.051429 546.377143 373.028571 647.753143 413.037714 713.947429c33.792 61.659429 67.218286 61.659429 84.845715 55.442285 19.163429-6.144 37.302857-24.356571 55.442285-56.100571 39.058286-65.755429 98.011429-167.058286 117.979429-201.435429l217.234286-39.350857c31.963429-4.608 57.417143-23.259429 67.291428-49.737143a67.730286 67.730286 0 0 0-13.458286-68.973714c-55.076571-61.220571-110.957714-121.417143-167.570285-180.955429 4.900571-36.132571 18.285714-134.290286 26.989714-205.458285 3.364571-31.451429-7.168-58.221714-29.037714-73.801143-12.653714-8.704-27.794286-13.238857-43.154286-13.019429zM1021.805714 680.301714a26.770286 26.770286 0 0 0-11.629714-3.364571c-21.211429-1.389714-52.882286-3.072-65.828571-3.657143l-36.644572-55.076571c-5.778286-8.192-13.677714-12.141714-21.869714-10.971429-7.68 0.950857-14.409143 6.436571-18.432 15.067429-8.923429 20.187429-20.626286 48.274286-24.868572 58.660571a2543.689143 2543.689143 0 0 0-69.558857 23.771429 21.942857 21.942857 0 0 0-14.189714 16.457142 24.137143 24.137143 0 0 0 9.508571 23.186286l48.274286 41.764572a7717.302857 7717.302857 0 0 0-1.316571 71.021714c-1.170286 21.211429 7.094857 26.038857 12.434285 26.843428 5.705143 1.170286 12.946286-1.097143 22.308572-6.948571 19.748571-11.995429 49.956571-30.573714 60.196571-36.864l59.830857 20.553143a23.625143 23.625143 0 0 0 24.283429-3.657143c5.851429-5.046857 8.630857-12.873143 7.314286-20.260571-4.242286-24.137143-8.777143-48.274286-13.677715-72.192 6.802286-8.923429 25.234286-33.133714 38.326858-50.907429 5.705143-7.899429 7.168-16.530286 4.169142-23.771429a20.114286 20.114286 0 0 0-8.704-9.654857zM133.705143 617.618286a13.385143 13.385143 0 0 0-4.388572 4.169143c-5.851429 8.850286-14.482286 22.162286-17.993142 27.648-10.971429 0.731429-21.942857 1.462857-32.987429 2.048-4.973714 0.438857-8.704 2.925714-10.24 6.729142-1.462857 3.657143-0.731429 7.899429 1.901714 11.702858 6.582857 8.996571 15.725714 21.065143 19.163429 25.526857a1271.881143 1271.881143 0 0 0-7.021714 36.059428 10.971429 10.971429 0 0 0 3.584 10.24 12.068571 12.068571 0 0 0 12.434285 1.682286l30.134857-10.459429c5.12 3.145143 20.333714 12.361143 30.354286 18.285715 8.923429 5.851429 13.092571 3.437714 14.774857 1.389714 1.901714-2.194286 2.779429-5.924571 2.56-11.483429l-0.877714-35.254857 23.844571-20.772571c3.584-2.925714 5.339429-7.168 4.461715-11.410286a10.971429 10.971429 0 0 0-6.948572-8.192 1293.165714 1293.165714 0 0 0-34.669714-12.141714c-2.194286-5.193143-8.045714-19.236571-12.434286-29.330286-2.048-4.388571-5.412571-7.314286-9.289143-7.753143a10.020571 10.020571 0 0 0-6.363428 1.316572z"  horiz-adv-x="1097" />

    
    <glyph glyph-name="jinggao1" unicode="&#59104;" d="M512 896a512 512 0 1 0 0-1024A512 512 0 0 0 512 896z m0-736a96 96 0 1 1 0-192 96 96 0 0 1 0 192z m55.488 576H456.512a64 64 0 0 1-63.488-71.936l48-384a64 64 0 0 1 63.488-56.064h14.976a64 64 0 0 1 63.488 56.064l48 384A64 64 0 0 1 567.488 736z"  horiz-adv-x="1024" />

    
    <glyph glyph-name="dianzan2" unicode="&#59105;" d="M753.709604-127.987953H121.672932A120.408016 120.408016 0 0 0 0-9.326727V364.486252a122.877615 122.877615 0 0 0 121.672932 120.829654h114.505072c79.027172 0 162.150264 157.331534 190.219366 304.302799a139.502233 139.502233 0 0 0 274.96878-27.707697l-34.092515-228.046397 212.867398-4.276623a144.140261 144.140261 0 0 0 116.312095-57.523589 135.767717 135.767717 0 0 0 21.985455-120.408016l-103.000353-360.441003A166.667824 166.667824 0 0 0 753.64937-127.987953zM121.672932 425.081781A61.860446 61.860446 0 0 1 60.234125 364.486252v-373.812979a60.113657 60.113657 0 0 1 61.499041-58.427101h631.976438a106.373465 106.373465 0 0 1 103.723163 75.292656l103.120822 360.802408a76.0757 76.0757 0 0 1-12.287761 67.582688 84.68918 84.68918 0 0 1-68.666903 33.429939L631.85597 474.353295a30.117062 30.117062 0 0 0-29.153317 34.574388l38.730543 257.44065A75.894997 75.894997 0 0 1 563.550472 835.758045a76.256402 76.256402 0 0 1-78.003191-57.342887C461.815035 654.091924 384.594887 463.571387 271.053562 430.201682V-67.753828h-60.234125V425.081781z"  horiz-adv-x="1024" />

    
    <glyph glyph-name="pinglun1" unicode="&#59106;" d="M512.035266-128H163.29535a90.331527 90.331527 0 0 0-89.006665 105.86855 344.163119 344.163119 0 0 1 11.020446 123.63375 492.848813 492.848813 0 0 0-46.309963 86.35694A511.999097 511.999097 0 1 0 512.035266-128z m0 963.536291a451.356531 451.356531 0 0 1-375.59849-702.538398c12.40553-18.608295 16.681222-53.83759-2.770167-165.487358a30.110509 30.110509 0 0 1 24.509955-34.928191L512.035266-67.778982a451.657636 451.657636 0 0 1 0 903.315273zM271.151194 383.878655m-60.221019 0a60.221018 60.221018 0 1 1 120.442037 0 60.221018 60.221018 0 1 1-120.442037 0ZM512.035266 383.878655m-60.221018 0a60.221018 60.221018 0 1 1 120.442037 0 60.221018 60.221018 0 1 1-120.442037 0ZM752.919339 383.878655m-60.221018 0a60.221018 60.221018 0 1 1 120.442036 0 60.221018 60.221018 0 1 1-120.442036 0Z"  horiz-adv-x="1024" />

    
    <glyph glyph-name="duigou" unicode="&#59107;" d="M512 896a512 512 0 1 1 512-512 512 512 0 0 1-512 512z m237.248-450.56l-256-256a64 64 0 0 0-90.496 0l-128 128a64 64 0 0 0 90.496 90.496L448 325.12l210.752 210.752a64 64 0 0 0 90.496-90.496z"  horiz-adv-x="1024" />

    
    <glyph glyph-name="tishi2" unicode="&#59108;" d="M512 896a512 512 0 1 0 0-1024A512 512 0 0 0 512 896z m0-56.888889a455.111111 455.111111 0 1 1 0-910.222222A455.111111 455.111111 0 0 1 512 839.111111zM512 668.444444a56.888889 56.888889 0 0 0 56.888889-56.888888v-284.444445a56.888889 56.888889 0 0 0-113.777778 0V611.555556a56.888889 56.888889 0 0 0 56.888889 56.888888zM512 156.444444m-56.888889 0a56.888889 56.888889 0 1 1 113.777778 0 56.888889 56.888889 0 1 1-113.777778 0Z"  horiz-adv-x="1024" />

    
    <glyph glyph-name="bianji_Hover" unicode="&#59109;" d="M512 384m-512 0a512 512 0 1 1 1024 0 512 512 0 1 1-1024 0ZM665.2416 390.0416l-224.8192-224.8704a22.3232 22.3232 0 0 0-11.264-6.144l-153.9072-30.6688c-10.24-2.048-18.8416 4.4544-19.2512 14.4896a18.7904 18.7904 0 0 0 0.3584 4.4032l30.72 153.856a22.3232 22.3232 0 0 0 6.144 11.264l224.768 224.8704 147.2512-147.2z m-51.2 243.2c7.936 7.9872 19.7632 9.0624 26.4192 2.4064l123.1872-123.1872c6.656-6.656 5.5808-18.432-2.4064-26.4192l-59.1872-59.1872-147.2 147.2 59.1872 59.1872z"  horiz-adv-x="1024" />

    
    <glyph glyph-name="shangyi_Hover" unicode="&#59110;" d="M512 384m-512 0a512 512 0 1 1 1024 0 512 512 0 1 1-1024 0ZM512 128a51.2 51.2 0 0 0-51.2 51.2V465.2032L394.5984 399.0016a51.2 51.2 0 1 0-72.3968 72.3968l153.6 153.6A51.0464 51.0464 0 0 0 511.8464 640h0.3072a51.0464 51.0464 0 0 0 36.0448-15.0016l153.6-153.6a51.2 51.2 0 1 0-72.3968-72.3968L563.2 465.2032V179.2a51.2 51.2 0 0 0-51.2-51.2z"  horiz-adv-x="1024" />

    
    <glyph glyph-name="shanchu_moren" unicode="&#59111;" d="M512 384m-512 0a512 512 0 1 1 1024 0 512 512 0 1 1-1024 0ZM665.6 179.2a51.0464 51.0464 0 0 0-36.1984 15.0016L512 311.6032l-117.4016-117.4016a51.2 51.2 0 1 0-72.3968 72.3968L439.6032 384 322.2016 501.4016a51.2 51.2 0 0 0 72.3968 72.3968L512 456.3968l117.4016 117.4016a51.2 51.2 0 1 0 72.3968-72.3968L584.3968 384l117.4016-117.4016A51.2 51.2 0 0 0 665.6 179.2z"  horiz-adv-x="1024" />

    
    <glyph glyph-name="xiayi_Hover" unicode="&#59112;" d="M512 384m-512 0a512 512 0 1 1 1024 0 512 512 0 1 1-1024 0ZM512 128h-0.1536a51.0464 51.0464 0 0 0-36.0448 15.0016l-153.6 153.6a51.2 51.2 0 0 0 72.3968 72.3968L460.8 302.7968V588.8a51.2 51.2 0 1 0 102.4 0v-286.0032l66.2016 66.2016a51.2 51.2 0 0 0 72.3968-72.3968l-153.6-153.6a51.0464 51.0464 0 0 0-36.0448-15.0016H512z"  horiz-adv-x="1024" />

    
    <glyph glyph-name="shanchu_Hover" unicode="&#59113;" d="M512 384m-512 0a512 512 0 1 1 1024 0 512 512 0 1 1-1024 0ZM665.6 179.2a51.0464 51.0464 0 0 0-36.1984 15.0016L512 311.6032l-117.4016-117.4016a51.2 51.2 0 1 0-72.3968 72.3968L439.6032 384 322.2016 501.4016a51.2 51.2 0 0 0 72.3968 72.3968L512 456.3968l117.4016 117.4016a51.2 51.2 0 1 0 72.3968-72.3968L584.3968 384l117.4016-117.4016A51.2 51.2 0 0 0 665.6 179.2z"  horiz-adv-x="1024" />

    
    <glyph glyph-name="xiayi_moren" unicode="&#59114;" d="M512 384m-512 0a512 512 0 1 1 1024 0 512 512 0 1 1-1024 0ZM512 128h-0.1536a51.0464 51.0464 0 0 0-36.0448 15.0016l-153.6 153.6a51.2 51.2 0 0 0 72.3968 72.3968L460.8 302.7968V588.8a51.2 51.2 0 1 0 102.4 0v-286.0032l66.2016 66.2016a51.2 51.2 0 0 0 72.3968-72.3968l-153.6-153.6a51.0464 51.0464 0 0 0-36.0448-15.0016H512z"  horiz-adv-x="1024" />

    
    <glyph glyph-name="bianji_moren" unicode="&#59115;" d="M512 384m-512 0a512 512 0 1 1 1024 0 512 512 0 1 1-1024 0ZM665.2416 390.0416l-224.8192-224.8704a22.3232 22.3232 0 0 0-11.264-6.144l-153.9072-30.6688c-10.24-2.048-18.8416 4.4544-19.2512 14.4896a18.7904 18.7904 0 0 0 0.3584 4.4032l30.72 153.856a22.3232 22.3232 0 0 0 6.144 11.264l224.768 224.8704 147.2512-147.2z m-51.2 243.2c7.936 7.9872 19.7632 9.0624 26.4192 2.4064l123.1872-123.1872c6.656-6.656 5.5808-18.432-2.4064-26.4192l-59.1872-59.1872-147.2 147.2 59.1872 59.1872z"  horiz-adv-x="1024" />

    
    <glyph glyph-name="huifuchushidaima" unicode="&#59116;" d="M40.618667 424.618667L470.812444 854.812444A57.457778 57.457778 0 0 0 568.888889 814.08v-159.288889c0-31.800889 25.713778-57.514667 57.457778-57.514667h340.195555c31.744 0 57.457778-25.713778 57.457778-57.457777v-311.751111a57.457778 57.457778 0 0 0-57.457778-57.457778h-340.195555A57.457778 57.457778 0 0 1 568.888889 113.208889v-159.345778a57.457778 57.457778 0 0 0-98.076445-40.675555L40.618667 343.381333a57.457778 57.457778 0 0 0 0 81.237334z"  horiz-adv-x="1024" />

    
    <glyph glyph-name="zaicizairu" unicode="&#59117;" d="M563.307789 876.058947a21.557895 21.557895 0 0 0 12.39579-3.934315l273.623579-192.565895a21.557895 21.557895 0 0 0 0-35.247158L575.703579 451.799579a21.557895 21.557895 0 0 0-33.953684 17.623579V531.456l-10.778948 2.856421a351.070316 351.070316 0 0 1-431.858526-313.936842 434.283789 434.283789 0 0 0 442.691368 557.810526V854.501053c0 11.910737 9.593263 21.557895 21.557895 21.557894zM459.668211-124.550737a21.557895 21.557895 0 0 0-12.39579 3.934316l-273.623579 192.512a21.557895 21.557895 0 0 0 0 35.247158l273.569684 192.512a21.557895 21.557895 0 0 0 33.953685-17.623579v-62.032842l10.886736-2.856421a351.070316 351.070316 0 0 1 431.858527 313.936842 434.283789 434.283789 0 0 0-442.745263-557.810526v-76.261053a21.557895 21.557895 0 0 0-21.557895-21.557895z"  horiz-adv-x="1024" />

    
    <glyph glyph-name="kaiguan" unicode="&#59119;" d="M512.003915-127.992772A483.987172 483.987172 0 0 0 171.195027 697.526107a60.234869 60.234869 0 0 0 85.352809-84.931165 361.409214 361.409214 0 1 1 510.912158 0 60.234869 60.234869 0 0 0 85.413045 84.931165A484.047407 484.047407 0 0 0 512.003915-127.992772zM512.003915 896a60.234869 60.234869 0 0 0 60.234869-60.234869v-361.409214a60.234869 60.234869 0 0 0-60.234869-60.234868 60.234869 60.234869 0 0 0-60.234869 60.234868V835.765131a60.234869 60.234869 0 0 0 60.234869 60.234869z"  horiz-adv-x="1024" />

    
    <glyph glyph-name="mulu" unicode="&#59120;" d="M881.777778 896a56.888889 56.888889 0 0 0 56.888889-56.888889v-910.222222a56.888889 56.888889 0 0 0-56.888889-56.888889H142.222222a56.888889 56.888889 0 0 0-56.888889 56.888889V839.111111a56.888889 56.888889 0 0 0 56.888889 56.888889h739.555556zM483.555556 213.333333H256a56.888889 56.888889 0 0 1 0-113.777777h227.555556a56.888889 56.888889 0 0 1 0 113.777777z m284.444444 227.555556H256a56.888889 56.888889 0 1 1 0-113.777778h512a56.888889 56.888889 0 0 1 0 113.777778z m0 227.555555H256a56.888889 56.888889 0 1 1 0-113.777777h512a56.888889 56.888889 0 0 1 0 113.777777z"  horiz-adv-x="1024" />

    
    <glyph glyph-name="suoxiao1" unicode="&#59122;" d="M601.6 409.6h-1.536a63.168 63.168 0 0 0-22.336 4.608 63.936 63.936 0 0 0-40.064 57.856V787.2a64 64 0 0 0 128 0v-159.104L914.688 877.248a64 64 0 0 0 90.496-90.496L756.096 537.6H915.2a64 64 0 0 0 0-128H601.6zM64-128a64 64 0 0 0-45.248 109.248l249.152 249.216H108.8a64 64 0 0 0 0 128H423.936a63.36 63.36 0 0 0 22.4-4.672 64 64 0 0 0 40.064-57.792V-19.2a64 64 0 0 0-128 0v159.168l-249.152-249.216A63.808 63.808 0 0 0 64-128z"  horiz-adv-x="1024" />

    
    <glyph glyph-name="kuoda" unicode="&#59123;" d="M601.570673 409.601312a63.99688 63.99688 0 0 0-45.245794 109.178677L805.464734 767.983841H646.36849a63.99688 63.99688 0 0 0 0 127.99376h313.392722a12.991367 12.991367 0 0 0 1.535925 0h0.19199a63.164921 63.164921 0 0 0 22.398908-4.671772A64.060877 64.060877 0 0 0 1023.950082 833.452649V518.396008a63.99688 63.99688 0 0 0-127.99376 0V677.428255l-249.139854-249.139854A63.80489 63.80489 0 0 0 601.570673 409.601312zM63.99688-127.972481a11.647432 11.647432 0 0 1-1.535925 0 63.356911 63.356911 0 0 0-22.398908 4.607775 63.868886 63.868886 0 0 0-40.062047 57.789183V249.609112a63.99688 63.99688 0 0 0 127.99376 0v-159.096245l249.139855 249.139855a63.99688 63.99688 0 0 0 90.491588-90.491589L218.485349 0.021279H377.581593a63.99688 63.99688 0 1 0 0-127.99376H63.99688z"  horiz-adv-x="1024" />

    
    <glyph glyph-name="shezhi3" unicode="&#59124;" d="M929.382997 257.87993l79.699872 41.98323a22.129372 22.129372 0 0 1 11.775784 18.886765L1023.987485 419.555188a22.129372 22.129372 0 0 1-10.694915 19.626307l-77.083032 46.648034a22.129372 22.129372 0 0 0-9.272718 11.150017l-29.638568 79.074106a22.129372 22.129372 0 0 0-0.398215 14.221962l26.623512 86.071311a22.129372 22.129372 0 0 1-5.119906 21.788045l-69.175621 72.930218a22.18626 22.18626 0 0 1-21.446718 6.257663l-87.493507-21.731157a22.18626 22.18626 0 0 0-14.506401 1.308421l-76.05905 34.58781a22.18626 22.18626 0 0 0-10.353588 9.727822L596.873537 881.200058a22.18626 22.18626 0 0 1-18.886764 11.718896L477.010846 895.990898a22.18626 22.18626 0 0 1-19.626307-10.694915l-46.648033-77.026144a22.18626 22.18626 0 0 0-11.206906-9.272718l-79.187882-29.58168a22.18626 22.18626 0 0 0-14.278849-0.455103l-86.128199 26.566624a22.18626 22.18626 0 0 1-21.788045-5.063018L125.159519 721.231435a22.129372 22.129372 0 0 1-6.257663-21.276054l21.332942-87.94861a22.129372 22.129372 0 0 0-1.365308-14.392625L104.224792 521.668872a22.129372 22.129372 0 0 0-9.78471-10.410476l-79.586096-42.097006a22.129372 22.129372 0 0 1-11.718897-18.886765L0.006258 349.355586a22.129372 22.129372 0 0 1 10.694915-19.569419l77.083031-46.648033a22.129372 22.129372 0 0 0 9.272719-11.150018l29.58168-79.074106c1.763523-4.551028 1.934187-9.614046 0.455103-14.278849l-26.623512-86.128199a22.129372 22.129372 0 0 1 5.00613-21.674269l69.175621-73.555985a22.18626 22.18626 0 0 1 21.38983-6.314551l87.94861 21.38983a22.18626 22.18626 0 0 0 14.392625-1.365308l76.05905-34.587811a22.18626 22.18626 0 0 0 10.410476-9.784709l42.097006-79.75676a22.18626 22.18626 0 0 1 18.886764-11.775784L546.698457-127.990329a22.18626 22.18626 0 0 1 19.626307 10.694915l46.648034 77.026143a22.18626 22.18626 0 0 0 11.206905 9.272719l79.130994 29.58168a22.18626 22.18626 0 0 0 14.335737 0.455103l86.185087-26.623512a22.18626 22.18626 0 0 1 21.674269 5.063018l73.612873 69.118733a22.129372 22.129372 0 0 1 6.371439 21.38983l-21.38983 87.94861a22.129372 22.129372 0 0 0 1.251532 14.221962l34.07582 77.083031a22.129372 22.129372 0 0 0 9.898485 10.638027z m-476.321934-93.011628A227.153169 227.153169 0 0 0 292.409786 443.163644a227.551384 227.551384 0 0 0 278.522894 160.878829 227.153169 227.153169 0 0 0 160.651277-278.409119 227.551384 227.551384 0 0 0-278.522894-160.82194z"  horiz-adv-x="1024" />

    
    <glyph glyph-name="yincang2" unicode="&#59125;" d="M731.450514 822.857143c232.594286 0 469.942857-129.974857 711.972572-389.851429a71.387429 71.387429 0 0 0 0-98.011428l-22.674286-23.917715C1186.618514 67.145143 956.803657-54.857143 731.450514-54.857143 498.856229-54.857143 261.507657 75.117714 19.477943 334.994286a71.387429 71.387429 0 0 0 0 98.011428l22.674286 23.917715C276.282514 700.854857 506.097371 822.857143 731.450514 822.857143z m0-219.428572a219.428571 219.428571 0 1 1 0-438.857142 219.428571 219.428571 0 0 1 0 438.857142zM1196.931657 849.481143a73.142857 73.142857 0 0 0 0-103.424L369.393371-81.481143a73.142857 73.142857 0 0 0-103.424 103.424L1093.507657 849.481143a73.142857 73.142857 0 0 0 103.424 0z"  horiz-adv-x="1462" />

    
    <glyph glyph-name="xiaoxi11" unicode="&#59126;" d="M404.136796-20.240019a107.759981 107.759981 0 1 1 215.519963 0M188.616833 491.619894a323.441584 323.441584 0 0 0 215.843243 304.960747 107.759981 107.759981 0 0 0 214.873403 0A323.387704 323.387704 0 0 0 835.176722 491.619894V141.399954a53.879991 53.879991 0 0 0 0-107.759982H188.616833a53.879991 53.879991 0 0 0 0 107.759982V491.619894z"  horiz-adv-x="1024" />

    
    <glyph glyph-name="bianzu1" unicode="&#59127;" d="M331.294118 52.705882C170.646588 52.705882 0 105.472 0 203.294118v180.705882h60.235294v-180.705882c0-36.803765 105.592471-90.352941 271.058824-90.352942 19.516235 0 39.032471 0.542118 57.404235 2.288942l5.662118-59.994353c-20.178824-1.867294-41.622588-2.529882-63.066353-2.529883zM331.294118 233.411765C170.646588 233.411765 0 286.177882 0 384v180.705882h60.235294v-180.705882C60.235294 347.136 165.827765 293.647059 331.294118 293.647059c19.516235 0 39.032471 0.542118 57.404235 2.288941l5.662118-59.994353c-20.178824-1.867294-41.622588-2.529882-63.066353-2.529882zM602.352941 564.705882h60.235294v-62.644706h-60.235294zM331.294118 414.117647C170.646588 414.117647 0 466.883765 0 564.705882v180.705883h60.235294v-180.705883C60.235294 527.841882 165.827765 474.352941 331.294118 474.352941a602.352941 602.352941 0 0 1 110.110117 9.155765l11.083294-59.27153A665.118118 665.118118 0 0 0 331.294118 414.117647zM591.932235 468.630588l-29.756235 52.404706c25.539765 14.456471 40.176941 30.418824 40.176941 43.670588v180.705883h60.235294v-180.705883c0-25.479529-12.227765-62.825412-70.656-96.075294zM331.294118 594.823529C170.646588 594.823529 0 647.589647 0 745.411765S170.646588 896 331.294118 896 662.588235 843.233882 662.588235 745.411765 491.881412 594.823529 331.294118 594.823529z m0 240.941177C165.827765 835.764706 60.235294 782.275765 60.235294 745.411765S165.827765 655.058824 331.294118 655.058824 602.352941 708.547765 602.352941 745.411765 496.760471 835.764706 331.294118 835.764706zM692.705882-128C532.058353-128 361.411765-75.233882 361.411765 22.588235v180.705883h60.235294c0-17.950118 31.021176-46.742588 99.147294-67.523765A606.268235 606.268235 0 0 1 692.705882 112.941176c165.466353 0 271.058824 53.549176 271.058824 90.352942h60.235294v-180.705883c0-97.822118-170.706824-150.588235-331.294118-150.588235zM421.647059 113.844706V22.588235c0-36.803765 105.592471-90.352941 271.058823-90.352941s271.058824 53.549176 271.058824 90.352941v91.497412A547.538824 547.538824 0 0 0 692.705882 52.705882a667.105882 667.105882 0 0 0-189.379764 25.419294A337.136941 337.136941 0 0 0 421.647059 113.844706zM692.705882 52.705882a667.105882 667.105882 0 0 0-189.379764 25.419294C411.768471 106.074353 361.411765 150.467765 361.411765 203.294118v180.705882h60.235294c0-17.950118 31.021176-46.742588 99.147294-67.523765a527.179294 527.179294 0 0 1 114.085647-20.48c18.853647-1.807059 38.309647-2.349176 57.825882-2.349176 165.466353 0 271.058824 53.488941 271.058824 90.352941h60.235294v-180.705882c0-97.822118-170.706824-150.588235-331.294118-150.588236zM421.647059 294.550588V203.294118c0-17.950118 31.021176-46.742588 99.147294-67.523765A606.268235 606.268235 0 0 1 692.705882 112.941176c165.466353 0 271.058824 53.549176 271.058824 90.352942V294.791529a598.377412 598.377412 0 0 0-334.125177-58.849882 589.583059 589.583059 0 0 0-126.554353 22.889412A333.703529 333.703529 0 0 0 421.647059 294.610824zM692.705882 233.411765c-21.383529 0-42.887529 0.602353-63.066353 2.529882a589.583059 589.583059 0 0 0-126.554353 22.889412C411.768471 286.840471 361.411765 331.233882 361.411765 384c0 25.479529 12.288 62.825412 70.656 96.075294A436.705882 436.705882 0 0 0 572.235294 524.589176a428.272941 428.272941 0 0 0 58.307765 7.529412c19.275294 1.807059 40.719059 2.469647 62.102588 2.469647 160.587294 0 331.294118-52.766118 331.294118-150.588235S853.293176 233.411765 692.705882 233.411765z m0 240.941176c-19.516235 0-38.972235-0.542118-57.404235-2.288941a386.108235 386.108235 0 0 1-52.284235-6.746353 386.048 386.048 0 0 1-121.434353-37.767529C436.284235 413.153882 421.647059 397.251765 421.647059 384c0-17.950118 31.021176-46.742588 99.147294-67.523765a527.179294 527.179294 0 0 1 114.085647-20.48c18.853647-1.807059 38.309647-2.349176 57.825882-2.349176 165.466353 0 271.058824 53.488941 271.058824 90.352941S858.172235 474.352941 692.705882 474.352941z"  horiz-adv-x="1024" />

    
    <glyph glyph-name="xianshimima" unicode="&#59129;" d="M853.333333-128C544.853333-128 264.106667 26.282667 18.858667 330.496a85.333333 85.333333 0 0 0 0 107.008C264.021333 741.717333 544.768 896 853.333333 896c308.48 0 589.226667-154.282667 834.389334-458.496a85.162667 85.162667 0 0 0 0-107.008C1442.56 26.282667 1161.813333-128 853.333333-128zM196.778667 384C398.08 154.453333 613.376 42.666667 853.333333 42.666667c239.957333 0 455.253333 111.786667 656.554667 341.333333C1308.672 613.546667 1093.376 725.333333 853.333333 725.333333 613.376 725.333333 398.08 613.546667 196.778667 384zM853.333333 384m-170.666666 0a170.666667 170.666667 0 1 1 341.333333 0 170.666667 170.666667 0 1 1-341.333333 0Z"  horiz-adv-x="1706" />

    
    <glyph glyph-name="yincangmima" unicode="&#59130;" d="M1910.802982 535.818469a123.378994 123.378994 0 0 0 168.535706-45.156712l123.378994-213.692417a123.378994 123.378994 0 0 0-45.156712-168.535706 123.378994 123.378994 0 0 0-168.535706 45.156712l-123.378994 213.692417a123.378994 123.378994 0 0 0 45.156712 168.535706zM1427.650842 360.003403a123.378994 123.378994 0 0 0 142.872875-100.183744l42.93589-243.056618a123.378994 123.378994 0 0 0-100.183743-142.872875 123.378994 123.378994 0 0 0-142.872875 100.060364l-42.812511 243.056619a123.378994 123.378994 0 0 0 99.936985 142.996254zM913.407195 360.003403a123.378994 123.378994 0 0 0 100.060364-142.996254l-42.812511-243.056619a123.378994 123.378994 0 0 0-142.872875-99.936985 123.378994 123.378994 0 0 0-100.183743 142.872875l42.93589 243.056618a123.378994 123.378994 0 0 0 142.872875 99.936986zM430.255054 535.818469a123.378994 123.378994 0 0 0 45.156712-168.535706l-123.378994-213.692417a123.378994 123.378994 0 0 0-168.535706-45.156712 123.378994 123.378994 0 0 0-45.156712 168.535706l123.378994 213.692417a123.378994 123.378994 0 0 0 168.535706 45.156712zM1170.529018 214.046053a1594.303361 1594.303361 0 0 0-613.933874 121.775067 1607.504913 1607.504913 0 0 0-277.232599 148.42493A1613.427105 1613.427105 0 0 0 36.429305 683.873262 123.378994 123.378994 0 0 0 210.887203 858.331159a1367.039254 1367.039254 0 0 1 205.796162-169.029221 1356.058523 1356.058523 0 0 1 234.420089-125.476437 1366.669117 1366.669117 0 0 1 1038.851129 0 1351.863637 1351.863637 0 0 1 234.666847 125.476437 1371.357518 1371.357518 0 0 1 205.672783 169.029221 123.378994 123.378994 0 1 0 174.457897-174.457897 1616.634958 1616.634958 0 0 0-242.933239-199.627212 1602.569753 1602.569753 0 0 0-277.355979-148.42493 1593.069571 1593.069571 0 0 0-613.933874-121.775067z"  horiz-adv-x="2346" />

    
    <glyph glyph-name="fuzhi2" unicode="&#59131;" d="M933.647059 112.941176H722.823529V564.705882a30.117647 30.117647 0 0 1-30.117647 30.117647H240.941176V805.647059A90.473412 90.473412 0 0 0 331.294118 896h602.352941A90.473412 90.473412 0 0 0 1024 805.647059v-602.352941a90.473412 90.473412 0 0 0-90.352941-90.352942zM783.058824 173.176471h150.588235a30.177882 30.177882 0 0 1 30.117647 30.117647v602.352941a30.117647 30.117647 0 0 1-30.117647 30.117647h-602.352941a30.117647 30.117647 0 0 1-30.117647-30.117647V655.058824h391.529411A90.473412 90.473412 0 0 0 783.058824 564.705882zM692.705882-128h-602.352941A90.473412 90.473412 0 0 0 0-37.647059v602.352941A90.473412 90.473412 0 0 0 90.352941 655.058824h602.352941A90.473412 90.473412 0 0 0 783.058824 564.705882v-602.352941a90.473412 90.473412 0 0 0-90.352942-90.352941zM90.352941 594.823529a30.117647 30.117647 0 0 1-30.117647-30.117647v-602.352941a30.117647 30.117647 0 0 1 30.117647-30.117647h602.352941a30.177882 30.177882 0 0 1 30.117647 30.117647v602.352941a30.117647 30.117647 0 0 1-30.117647 30.117647z"  horiz-adv-x="1024" />

    
    <glyph glyph-name="xingzhuangjiehe" unicode="&#59132;" d="M865.962667 896c51.541333 0 94.094222-39.025778 100.352-89.543111L967.111111 793.6v-665.6H764.814222a50.176 50.176 0 0 1-49.607111-41.187556l-0.910222-10.012444V-128H157.923556a101.603556 101.603556 0 0 0-100.238223 89.543111L56.888889-25.6V793.6C56.888889 845.824 95.573333 888.832 145.294222 895.203556L158.151111 896H865.848889z m99.896889-870.4L815.445333-120.604444V25.6h150.414223zM562.517333 179.2H259.185778c-24.803556 0-45.511111-18.204444-49.834667-42.097778l-0.796444-9.102222 0.796444-9.102222a50.972444 50.972444 0 0 1 40.732445-41.301334l9.102222-0.796444h303.331555c24.917333 0 45.511111 18.204444 49.834667 42.097778l0.796444 9.102222-0.796444 9.102222a50.744889 50.744889 0 0 1-49.834667 42.097778z m202.296889 256H259.185778c-24.803556 0-45.511111-18.204444-49.834667-42.097778l-0.796444-9.102222 0.796444-9.102222a50.972444 50.972444 0 0 1 40.732445-41.301334l9.102222-0.796444h505.628444c24.803556 0 45.511111 18.204444 49.834667 42.097778l0.796444 9.102222-0.796444 9.102222a50.744889 50.744889 0 0 1-49.834667 42.097778z m0 256H259.185778c-24.803556 0-45.511111-18.204444-49.834667-42.097778l-0.796444-9.102222 0.796444-9.102222a50.972444 50.972444 0 0 1 40.732445-41.301334l9.102222-0.796444h505.628444c24.803556 0 45.511111 18.204444 49.834667 42.097778l0.796444 9.102222-0.796444 9.102222a50.744889 50.744889 0 0 1-49.834667 42.097778z"  horiz-adv-x="1024" />

    
    <glyph glyph-name="xingzhuangjiehebeifen" unicode="&#59133;" d="M1222.258786 410.887277c31.871522 0 57.599136-24.063639 57.727134-53.759194a47.35929 47.35929 0 0 0-3.455948-18.431723l-122.494162-314.747279-20.735689-52.735209-24.319636-63.615046A57.215142 57.215142 0 0 0 1054.709299-127.98464H164.098659c-31.99952 0-57.599136 24.191637-57.855133 53.887191V-72.945466a42.239366 42.239366 0 0 0 3.455949 17.279741l167.677484 431.225532a57.215142 57.215142 0 0 0 54.143188 35.583466H1222.386784zM434.302606 896c18.175727 0 35.839462-4.095939 52.095218-11.903821l182.525262-83.966741c15.99976-7.679885 33.791493-11.775823 51.967221-11.903821h318.715219c63.871042-0.127998 115.454268-48.383274 115.582266-107.774384v-161.661575H331.520147c-72.958906-0.127998-137.98193-42.751359-162.813558-106.750399L6.917016-2.930516A98.814518 98.814518 0 0 0 0.00512 33.676935V788.225617C0.133118 847.616726 51.844342 895.744004 115.587386 896h318.71522z"  horiz-adv-x="1280" />

    
    <glyph glyph-name="shangchuan" unicode="&#59134;" d="M959.326316 896c208.357053 0 377.263158-167.154526 377.263158-373.328842 0-20.965053-1.751579-41.498947-5.12-61.520842 132.742737-31.312842 231.477895-149.504 231.477894-290.492632C1562.947368 5.739789 1427.833263-128 1261.136842-128c-10.913684 0-21.719579 0.565895-32.336842 1.697684V-128H301.810526C135.114105-128 0 5.712842 0 170.657684s135.114105 298.684632 301.810526 298.684632c0 111.912421 91.701895 202.644211 204.8 202.64421a205.608421 205.608421 0 0 0 97.172211-24.198737C655.737263 792.414316 795.297684 896 959.326316 896z m-160.687158-568.185263a17.785263 17.785263 0 0 1-25.061053-1.536l-186.960842-211.429053a17.785263 17.785263 0 0 1 13.312-29.507368h72.165053a17.785263 17.785263 0 0 0 17.758316-17.785263V-128h194.021052v195.584a17.785263 17.785263 0 0 0 17.785263 17.758316h72.138106a17.785263 17.785263 0 0 1 13.312 29.507368l-186.933895 211.429053a17.758316 17.758316 0 0 1-1.536 1.536z"  horiz-adv-x="1562" />

    
    <glyph glyph-name="tiaozhan" unicode="&#59135;" d="M512 896a512 512 0 0 0 512-512 512 512 0 0 0-512-512 512 512 0 0 0-512 512 512 512 0 0 0 512 512z m97.664-205.696l-313.856-298.88a6.4 6.4 0 0 1 2.56-10.688l152.128-48.32a6.4 6.4 0 0 0 4.288-7.424l-50.56-240.832a6.4 6.4 0 0 1 10.688-5.952l313.856 298.88a6.4 6.4 0 0 1-2.048 10.624l-145.856 58.304a6.4 6.4 0 0 0-3.84 7.168l43.328 231.296a6.4 6.4 0 0 1-10.688 5.824z"  horiz-adv-x="1024" />

    
    <glyph glyph-name="youhua" unicode="&#59138;" d="M85.333333-128a85.333333 85.333333 0 0 0-60.330666 145.664L391.338667 384 25.002667 750.336A85.333333 85.333333 0 0 0 145.664 870.997333l426.666667-426.666666a85.333333 85.333333 0 0 0 0-120.661334l-426.666667-426.666666A85.077333 85.077333 0 0 0 85.333333-128zM682.666667-128a85.333333 85.333333 0 0 0-60.330667 145.664L988.672 384 622.336 750.336A85.333333 85.333333 0 0 0 742.997333 870.997333l426.666667-426.666666a85.333333 85.333333 0 0 0 0-120.661334l-426.666667-426.666666A85.077333 85.077333 0 0 0 682.666667-128z"  horiz-adv-x="1194" />

    
    <glyph glyph-name="jiesuo" unicode="&#59139;" d="M873.411765 414.117647a60.235294 60.235294 0 0 0 60.235294-60.235294v-421.647059a60.235294 60.235294 0 0 0-60.235294-60.235294H150.588235a60.235294 60.235294 0 0 0-60.235294 60.235294V353.882353a60.235294 60.235294 0 0 0 60.235294 60.235294z m-361.411765-150.588235a60.235294 60.235294 0 0 1-60.235294-60.235294v-120.470589a60.235294 60.235294 0 0 1 120.470588 0v120.470589a60.235294 60.235294 0 0 1-60.235294 60.235294zM271.058824 353.882353a60.235294 60.235294 0 0 0-60.235295 60.235294V594.823529a301.176471 301.176471 0 0 0 602.352942 0 60.235294 60.235294 0 0 0-120.470589 0 180.705882 180.705882 0 0 1-361.411764 0v-180.705882a60.235294 60.235294 0 0 0-60.235294-60.235294z"  horiz-adv-x="1024" />

    
    <glyph glyph-name="suo1" unicode="&#59140;" d="M921.6 486.4a68.266667 68.266667 0 0 0 68.266667-68.266667v-477.866666a68.266667 68.266667 0 0 0-68.266667-68.266667H102.4a68.266667 68.266667 0 0 0-68.266667 68.266667V418.133333a68.266667 68.266667 0 0 0 68.266667 68.266667zM512 315.733333a68.266667 68.266667 0 0 1-68.266667-68.266666v-136.533334a68.266667 68.266667 0 0 1 136.533334 0v136.533334a68.266667 68.266667 0 0 1-68.266667 68.266666zM785.066667 281.6a68.266667 68.266667 0 0 0-68.266667 68.266667V554.666667a204.8 204.8 0 0 1-409.6 0v-204.8a68.266667 68.266667 0 0 0-136.533333 0V554.666667a341.333333 341.333333 0 0 0 682.666666 0v-204.8a68.266667 68.266667 0 0 0-68.266666-68.266667z"  horiz-adv-x="1024" />

    
    <glyph glyph-name="bianzu11" unicode="&#59142;" d="M474.039901-52.079801a474.039901 474.039901 0 1 0 474.0399 474.0399 474.58166 474.58166 0 0 0-474.0399-474.0399zM474.039901 760.560028a338.599929 338.599929 0 1 1 338.599929-338.599929 339.006249 339.006249 0 0 1-338.599929 338.599929zM956.273919-127.993905a67.516826 67.516826 0 0 0-47.87803 19.841956l-143.634089 143.63409a67.719986 67.719986 0 0 0 95.756059 95.756059l143.63409-143.634089a67.719986 67.719986 0 0 0-47.87803-115.598016z"  horiz-adv-x="1024" />

    
    <glyph glyph-name="biji" unicode="&#59146;" d="M834.340512-127.992248H75.842091A37.92769 37.92769 0 0 0 37.914401-90.119928V744.289242a37.92769 37.92769 0 0 0 37.92769 37.927689h379.276895a37.92769 37.92769 0 1 0 0-75.855379H113.76978v-758.55379H796.468192v379.276895a37.92769 37.92769 0 1 0 75.80001 0v-417.204585a37.92769 37.92769 0 0 0-37.92769-37.87232zM910.25126 683.715676L701.78739 475.362544a20.707965 20.707965 0 0 0-10.46472-5.702996l-142.574892-28.459609a14.229805 14.229805 0 0 0-17.828782 13.45464 17.4412 17.4412 0 0 0 0.332213 4.041929l28.404241 142.63026a20.707965 20.707965 0 0 0 5.702995 10.464721l208.408502 208.353132zM849.068637 890.02016a16.832143 16.832143 0 0 0 23.476409 2.104018l109.630402-109.630402a16.832143 16.832143 0 0 0-2.159387-23.476409l-52.655814-52.600446L796.468192 837.308977zM644.757433 61.59083H265.480538a37.92769 37.92769 0 1 0 0 75.855379h379.276895a37.92769 37.92769 0 0 0 0-75.855379zM644.757433 251.229278H265.480538a37.92769 37.92769 0 1 0 0 75.855379h379.276895a37.92769 37.92769 0 0 0 0-75.855379z"  horiz-adv-x="1024" />

    
    <glyph glyph-name="zhiding" unicode="&#59097;" d="M496.0256 671.232L129.024 212.48A20.48 20.48 0 0 1 144.9984 179.2H337.92c11.264 0 20.48-9.216 20.48-20.48v-266.24c0-11.264 9.216-20.48 20.48-20.48h266.24a20.48 20.48 0 0 1 20.48 20.48V158.72c0 11.264 9.216 20.48 20.48 20.48h192.9216a20.48 20.48 0 0 1 15.9744 33.28l-367.0016 458.752a20.48 20.48 0 0 1-31.9488 0zM153.6 896m51.2 0l614.4 0q51.2 0 51.2-51.2l0 0q0-51.2-51.2-51.2l-614.4 0q-51.2 0-51.2 51.2l0 0q0 51.2 51.2 51.2Z"  horiz-adv-x="1024" />

    
    <glyph glyph-name="leixing" unicode="&#59093;" d="M85.346133 853.303894h255.99232a85.330773 85.330773 0 0 0 85.330774-85.330773v-255.99232a85.330773 85.330773 0 0 0-85.330774-85.330774H85.346133a85.330773 85.330773 0 0 0-85.330773 85.330774v255.99232a85.330773 85.330773 0 0 0 85.330773 85.330773zM493.397891 698.001887L667.302008 871.906003a82.002873 82.002873 0 0 0 116.049851 0l173.904117-173.904116a82.002873 82.002873 0 0 0 0-116.049852L783.351859 408.047919a82.002873 82.002873 0 0 0-116.049851 0L493.397891 581.952035a82.002873 82.002873 0 0 0 0 116.049852zM85.346133 341.319254h255.99232a85.330773 85.330773 0 0 0 85.330774-85.330774v-255.99232a85.330773 85.330773 0 0 0-85.330774-85.330773H85.346133a85.330773 85.330773 0 0 0-85.330773 85.330773v255.99232a85.330773 85.330773 0 0 0 85.330773 85.330774zM597.330773 341.319254h255.992321a85.330773 85.330773 0 0 0 85.330773-85.330774v-255.99232a85.330773 85.330773 0 0 0-85.330773-85.330773H597.330773a85.330773 85.330773 0 0 0-85.330773 85.330773v255.99232a85.330773 85.330773 0 0 0 85.330773 85.330774z"  horiz-adv-x="1024" />

    
    <glyph glyph-name="biaoqianjiantou" unicode="&#59095;" d="M810.666667 896v-1024h-90.752a170.666667 170.666667 0 0 0-131.072 61.44l-329.984 395.946667a85.333333 85.333333 0 0 0 0 109.226666l329.984 395.946667A170.666667 170.666667 0 0 0 719.914667 896H810.666667z m-170.666667-426.666667a85.333333 85.333333 0 1 1 0-170.666666 85.333333 85.333333 0 0 1 0 170.666666z"  horiz-adv-x="1024" />

    
    <glyph glyph-name="jiazaishibai1" unicode="&#59094;" d="M21.041096 89.424658a406.794521 119.232877 0 1 1 813.589041 0 406.794521 119.232877 0 1 1-813.589041 0ZM820.60274 384a56.109589 35.068493 0 1 1 112.219178 0 56.109589 35.068493 0 1 1-112.219178 0ZM960.876712 229.69863a28.054795 21.041096 0 1 1 56.109589 0 28.054795 21.041096 0 1 1-56.109589 0ZM241.173041 783.780822h373.128767c39.276712 0 70.136986-30.860274 70.136987-70.136986v-558.290411c0-39.276712-30.860274-70.136986-70.136987-70.136987H241.173041c-39.276712 0-70.136986 30.860274-70.136986 70.136987V713.643836c0 39.276712 30.860274 70.136986 70.136986 70.136986zM239.770301 696.810959h381.545206v-173.939726H239.770301zM266.422356 405.041096h326.838356c15.430137 0 28.054795-12.624658 28.054795-28.054795s-12.624658-28.054795-28.054795-28.054794H266.422356c-15.430137 0-28.054795 12.624658-28.054794 28.054794 1.40274 15.430137 12.624658 28.054795 28.054794 28.054795zM266.422356 291.419178h326.838356c15.430137 0 28.054795-12.624658 28.054795-28.054794s-12.624658-28.054795-28.054795-28.054795H266.422356c-15.430137 0-28.054795 12.624658-28.054794 28.054795 1.40274 15.430137 12.624658 28.054795 28.054794 28.054794zM382.849753 783.780822l-33.665753-173.939726h78.553425L382.849753 447.123288h61.720548l-47.69315-155.70411L538.553863 503.232877l-63.123288 21.041096 42.082192 144.482191h-67.331507L486.652493 783.780822z"  horiz-adv-x="1024" />

    
    <glyph glyph-name="qiyezhanghao" unicode="&#59084;" d="M122.88 855.04a40.96 40.96 0 0 0 40.96 40.96h450.56a40.96 40.96 0 0 0 40.96-40.96v-901.12h409.6a40.96 40.96 0 1 0 0-81.92H40.96a40.96 40.96 0 1 0 0 81.92h81.92V855.04z m368.64-696.32H286.72a40.96 40.96 0 0 1-3.072-81.8176L286.72 76.8h204.8a40.96 40.96 0 1 1 0 81.92z m0 204.8H286.72a40.96 40.96 0 0 1-3.072-81.8176L286.72 281.6h204.8a40.96 40.96 0 1 1 0 81.92z m0 204.8H286.72a40.96 40.96 0 0 1-3.072-81.8176L286.72 486.4h204.8a40.96 40.96 0 1 1 0 81.92z m0 204.8H286.72a40.96 40.96 0 0 1-3.072-81.8176L286.72 691.2h204.8a40.96 40.96 0 1 1 0 81.92zM778.24 691.2h163.84a40.96 40.96 0 0 0 40.96-40.96v-696.32H737.28V650.24a40.96 40.96 0 0 0 40.96 40.96z"  horiz-adv-x="1105" />

    
    <glyph glyph-name="gerenzhanghao" unicode="&#59085;" d="M692.154923 600.949153a13.016949 13.016949 0 0 0 12.791322-10.552407l83.725017-435.356204a13.016949 13.016949 0 0 0-2.065356-9.823457L609.505974-112.397017a13.016949 13.016949 0 0 0-21.451932 0L410.95411 145.217085a13.016949 13.016949 0 0 0-2.065356 9.823457l83.725017 435.356204A13.016949 13.016949 0 0 0 505.405093 600.949153zM606.000076 891.192407l140.704542-93.808814a13.016949 13.016949 0 0 0 5.137356-14.943457l-45.958508-137.875526a13.016949 13.016949 0 0 0-12.357424-8.903593H504.033974a13.016949 13.016949 0 0 0-12.357423 8.903593l-45.958509 137.875526a13.016949 13.016949 0 0 0 5.137356 14.926101L591.55994 891.209763a13.016949 13.016949 0 0 0 14.440136 0zM442.576618 618.305085L348.594245 150.545356l-94.03444-51.442983a11.975593 11.975593 0 0 0-3.679458-1.301695L248.953839 97.627119c-6.317559-0.052068-11.576407 4.859661-12.444204 11.298712l-0.138847 1.787661L234.305432 354.842034a13.797966 13.797966 0 0 0 1.909152 7.150644l1.076068 1.544678L442.576618 618.305085z"  horiz-adv-x="1024" />

    
    <glyph glyph-name="shenglvehao" unicode="&#59144;" d="M221 304c-44.183 0-80 35.817-80 80s35.817 80 80 80 80-35.817 80-80-35.817-80-80-80z m291 0c-44.183 0-80 35.817-80 80s35.817 80 80 80 80-35.817 80-80-35.817-80-80-80z m291 0c-44.183 0-80 35.817-80 80s35.817 80 80 80 80-35.817 80-80-35.817-80-80-80z"  horiz-adv-x="1024" />

    
    <glyph glyph-name="shangjiantou-tianchong" unicode="&#59187;" d="M512 864C246.4 864 32 649.6 32 384s214.4-480 480-480 480 214.4 480 480S777.6 864 512 864z m272-595.2c-12.8-12.8-32-12.8-44.8 0L512 496l-227.2-227.2c-12.8-12.8-32-12.8-44.8 0-12.8 12.8-12.8 32 0 44.8l249.6 249.6c12.8 12.8 32 12.8 44.8 0l249.6-249.6c12.8-12.8 12.8-32 0-44.8z"  horiz-adv-x="1024" />

    
    <glyph glyph-name="wancheng1" unicode="&#59083;" d="M512 896a512 512 0 1 0 0-1024A512 512 0 0 0 512 896z m307.2-288h-112.576a6.4 6.4 0 0 1-4.48-1.92L451.136 355.2a6.4 6.4 0 0 0-7.168-1.28L248.832 441.344a6.4 6.4 0 0 1-7.552-1.792l-45.824-55.936a6.4 6.4 0 0 1 0.256-8.32l247.04-273.6a6.4 6.4 0 0 1 9.92 0.448L824.32 597.76a6.4 6.4 0 0 1-5.12 10.24z"  horiz-adv-x="1024" />

    
    <glyph glyph-name="jinzhi" unicode="&#59092;" d="M512 896C229.222291 896 0 666.777709 0 384c0-282.777709 229.222291-512 512-512 282.777709 0 512 229.201014 512 512C1023.978723 666.777709 794.777709 896 512 896zM77.194697 384c0 240.116361 194.667664 434.784025 434.784025 434.784025 64.811204 0 126.324398-14.213357 181.582014-39.639945L279.330757 16.686864C157.857624 93.775174 77.194697 229.461663 77.194697 384zM512-50.762748c-52.257491 0-102.344679 9.234426-148.729585 26.107468L773.819391 731.09953c105.068196-79.343723 172.943357-205.285127 172.943357-347.09953C946.762748 143.883639 752.116361-50.762748 512-50.762748z"  horiz-adv-x="1024" />

    
    <glyph glyph-name="biaoqian1" unicode="&#59086;" d="M753.37797 627.478158l256.957652-453.093464c25.58611-45.104657 12.939262-102.052029-27.706103-131.878123l-8.479968-5.555841-256.592135-150.884949c-44.373626-26.097833-100.151346-13.158571-129.538822 28.144722l-5.482738 8.626174-25.293698 44.592935a25.58611 25.58611 0 0 0-3.289643 14.328222l0.804135 4.897913 120.474029 457.772066 51.39153 179.833805a14.620635 14.620635 0 0 0 26.755761 3.21654zM359.644283-123.437631a98.61618 98.61618 0 0 1 120.98575 71.129387l166.163511 631.611411C682.17548 713.520592 603.955085 851.393175 472.150065 887.359936 340.418148 923.326697 205.031073 843.717342 169.72224 709.499917L3.485626 77.961609a100.809275 100.809275 0 0 1 69.886633-123.251949l286.272024-78.074188z m35.820554 719.262115a88.235529 88.235529 0 0 0-61.114252 107.827179A86.261744 86.261744 0 0 0 440.203979 765.862463c46.054999-12.573746 73.468688-60.82184 61.114252-107.754076a86.261744 86.261744 0 0 0-105.853394-62.283903z"  horiz-adv-x="1024" />

    
    <glyph glyph-name="jilu" unicode="&#59087;" d="M78.769231 204.248615v-302.867692c0-16.226462 13.154462-29.380923 29.380923-29.380923h886.468923a29.380923 29.380923 0 0 1 29.380923 29.380923V571.234462a29.380923 29.380923 0 0 1-52.932923 17.644307L676.233846 194.56a29.380923 29.380923 0 0 0-41.353846-5.828923L468.440615 315.313231a29.380923 29.380923 0 0 1-41.747692-6.301539L298.535385 128.315077a29.380923 29.380923 0 0 0-42.535385-5.828923L126.739692 227.170462a29.380923 29.380923 0 0 1-47.891692-22.843077zM225.043692 265.846154a78.690462 78.690462 0 0 0-48.679384 16.856615L30.089846 397.705846a78.769231 78.769231 0 0 0 97.358769 123.825231l81.762462-64.196923 131.544615 182.272a78.769231 78.769231 0 0 0 113.112616 15.36L601.560615 536.812308 751.458462 711.916308l-3.072-0.393846A78.769231 78.769231 0 1 0 727.591385 867.643077l207.241846 27.648a78.769231 78.769231 0 0 0 70.262154-129.260308L671.665231 376.359385a78.690462 78.690462 0 0 0-109.016616-10.24l-142.572307 114.136615-131.15077-181.720615a78.769231 78.769231 0 0 0-63.803076-32.689231z"  horiz-adv-x="1024" />

    
    <glyph glyph-name="shu" unicode="&#59088;" d="M0 894.695638m61.279822 0l122.480878 0q61.279822 0 61.279821-61.279822l0-857.602442q0-61.279822-61.279821-61.279822l-122.480878 0q-61.279822 0-61.279822 61.279822l0 857.602442q0 61.279822 61.279822 61.279822ZM306.320343 894.695638m61.279822 0l122.480878 0q61.279822 0 61.279821-61.279822l0-857.602442q0-61.279822-61.279821-61.279822l-122.480878 0q-61.279822 0-61.279822 61.279822l0 857.602442q0 61.279822 61.279822 61.279822ZM658.009809 862.086581L776.394863 893.907979a61.279822 61.279822 0 0 0 75.063843-43.32121l221.962131-828.459082a61.279822 61.279822 0 0 0-43.321211-74.985078l-118.385054-31.742632a61.279822 61.279822 0 0 0-74.985077 43.32121L614.688598 787.101503a61.279822 61.279822 0 0 0 43.321211 75.063844z"  horiz-adv-x="1102" />

    
    <glyph glyph-name="tuijian" unicode="&#59089;" d="M729.526857-119.442286a99.474286 99.474286 0 0 0-40.96 9.216c-66.706286 30.72-165.595429 77.385143-206.262857 96.768-69.046857-31.670857-138.093714-63.488-207.140571-95.378285-31.744-13.750857-62.683429-11.922286-85.577143 4.388571-21.577143 15.36-32.256 41.837714-29.403429 72.411429 8.192 71.533714 21.942857 169.398857 27.062857 205.750857-57.197714 59.172571-113.590857 119.222857-169.033143 179.931428a67.437714 67.437714 0 0 0-14.116571 69.266286c10.020571 26.331429 35.84 45.056 69.339429 49.810286l219.355428 39.131428C313.051429 546.377143 373.028571 647.753143 413.037714 713.947429c33.792 61.659429 67.218286 61.659429 84.845715 55.442285 19.163429-6.144 37.302857-24.356571 55.442285-56.100571 39.058286-65.755429 98.011429-167.058286 117.979429-201.435429l217.234286-39.350857c31.963429-4.608 57.417143-23.259429 67.291428-49.737143a67.730286 67.730286 0 0 0-13.458286-68.973714c-55.076571-61.220571-110.957714-121.417143-167.570285-180.955429 4.900571-36.132571 18.285714-134.290286 26.989714-205.458285 3.364571-31.451429-7.168-58.221714-29.037714-73.801143-12.653714-8.704-27.794286-13.238857-43.154286-13.019429zM1021.805714 680.301714a26.770286 26.770286 0 0 0-11.629714-3.364571c-21.211429-1.389714-52.882286-3.072-65.828571-3.657143l-36.644572-55.076571c-5.778286-8.192-13.677714-12.141714-21.869714-10.971429-7.68 0.950857-14.409143 6.436571-18.432 15.067429-8.923429 20.187429-20.626286 48.274286-24.868572 58.660571a2543.689143 2543.689143 0 0 0-69.558857 23.771429 21.942857 21.942857 0 0 0-14.189714 16.457142 24.137143 24.137143 0 0 0 9.508571 23.186286l48.274286 41.764572a7717.302857 7717.302857 0 0 0-1.316571 71.021714c-1.170286 21.211429 7.094857 26.038857 12.434285 26.843428 5.705143 1.170286 12.946286-1.097143 22.308572-6.948571 19.748571-11.995429 49.956571-30.573714 60.196571-36.864l59.830857 20.553143a23.625143 23.625143 0 0 0 24.283429-3.657143c5.851429-5.046857 8.630857-12.873143 7.314286-20.260571-4.242286-24.137143-8.777143-48.274286-13.677715-72.192 6.802286-8.923429 25.234286-33.133714 38.326858-50.907429 5.705143-7.899429 7.168-16.530286 4.169142-23.771429a20.114286 20.114286 0 0 0-8.704-9.654857zM133.705143 617.618286a13.385143 13.385143 0 0 0-4.388572 4.169143c-5.851429 8.850286-14.482286 22.162286-17.993142 27.648-10.971429 0.731429-21.942857 1.462857-32.987429 2.048-4.973714 0.438857-8.704 2.925714-10.24 6.729142-1.462857 3.657143-0.731429 7.899429 1.901714 11.702858 6.582857 8.996571 15.725714 21.065143 19.163429 25.526857a1271.881143 1271.881143 0 0 0-7.021714 36.059428 10.971429 10.971429 0 0 0 3.584 10.24 12.068571 12.068571 0 0 0 12.434285 1.682286l30.134857-10.459429c5.12 3.145143 20.333714 12.361143 30.354286 18.285715 8.923429 5.851429 13.092571 3.437714 14.774857 1.389714 1.901714-2.194286 2.779429-5.924571 2.56-11.483429l-0.877714-35.254857 23.844571-20.772571c3.584-2.925714 5.339429-7.168 4.461715-11.410286a10.971429 10.971429 0 0 0-6.948572-8.192 1293.165714 1293.165714 0 0 0-34.669714-12.141714c-2.194286-5.193143-8.045714-19.236571-12.434286-29.330286-2.048-4.388571-5.412571-7.314286-9.289143-7.753143a10.020571 10.020571 0 0 0-6.363428 1.316572z"  horiz-adv-x="1097" />

    
    <glyph glyph-name="chuangjianzhe" unicode="&#59090;" d="M512.000731 344.649143c150.016 0 271.652571 123.392 271.652572 275.675428V827.099429A68.461714 68.461714 0 0 1 715.776731 896H512.000731C361.984731 896 240.34816 772.534857 240.34816 620.251429c0-152.137143 121.636571-275.602286 271.652571-275.602286zM240.34816 285.549714h543.305143c112.566857 0 203.776-92.598857 203.776-206.774857v-137.874286c0-38.034286-30.427429-68.900571-67.949714-68.900571H104.595017A68.461714 68.461714 0 0 0 36.57216-59.099429v137.874286c0 114.176 91.209143 206.774857 203.776 206.774857z"  horiz-adv-x="1024" />

    
    <glyph glyph-name="bangdingshoujihao" unicode="&#59082;" d="M728.15-2.72H297.89c-23.71 0-43 19.29-43 43V728.01c0 23.71 19.29 43 43 43h430.26c23.71 0 43-19.29 43-43v-687.73c0-23.71-19.29-43-43-43zM297.89 765.01c-20.4 0-37-16.6-37-37v-687.73c0-20.4 16.6-37 37-37h430.26c20.4 0 37 16.6 37 37V728.01c0 20.4-16.6 37-37 37H297.89zM691.33 150.24h-358c-18.2 0-33 14.8-33 33V674.22c0 18.2 14.8 33 33 33h358c18.2 0 33-14.8 33-33v-490.98c0-18.2-14.8-33-33-33z m-358 550.98c-14.89 0-27-12.11-27-27v-490.98c0-14.89 12.11-27 27-27h358c14.89 0 27 12.11 27 27V674.22c0 14.89-12.11 27-27 27h-358zM512.38 25.54c-26.84 0-48.67 21.83-48.67 48.67 0 26.84 21.84 48.67 48.67 48.67 26.84 0 48.67-21.83 48.67-48.67 0-26.84-21.83-48.67-48.67-48.67z m0 91.35c-23.53 0-42.67-19.14-42.67-42.67s19.14-42.67 42.67-42.67 42.67 19.14 42.67 42.67c0 23.52-19.14 42.67-42.67 42.67z"  horiz-adv-x="1024" />

    
    <glyph glyph-name="liulan" unicode="&#59079;" d="M510.557 691.646c-302.839 0-458.323-306.151-458.323-306.151s117.33-306.19 458.323-306.19c308.802 0 458.301 304.995 458.301 304.995s-150.691 307.345-458.301 307.345v0 0zM511.246 194.134c-110.73 0-190.773 83.726-190.773 191.364 0 107.648 80.049 191.352 190.773 191.352 110.724 0 190.764-83.697 190.764-191.352 0.001-107.639-80.039-191.364-190.764-191.364v0 0zM511.246 500.324c-63.286-0.145-114.461-53.321-114.461-114.827 0-61.473 51.176-114.821 114.461-114.821 63.282 0 114.454 53.352 114.454 114.821 0.004 61.527-51.17 114.946-114.454 114.827v0 0z"  horiz-adv-x="1024" />

    
    <glyph glyph-name="pinglun" unicode="&#59080;" d="M896 704H128c-35.2 0-64-28.8-64-64v-448c0-35.2 28.8-64 64-64h256l128-64 128 64h256c35.2 0 64 28.8 64 64V640c0 35.2-28.8 64-64 64zM304 368c-26.5 0-48 21.5-48 48s21.5 48 48 48 48-21.5 48-48-21.5-48-48-48z m208 0c-26.5 0-48 21.5-48 48s21.5 48 48 48 48-21.5 48-48-21.5-48-48-48z m208 0c-26.5 0-48 21.5-48 48s21.5 48 48 48 48-21.5 48-48-21.5-48-48-48z"  horiz-adv-x="1024" />

    
    <glyph glyph-name="bokeyuan" unicode="&#59078;" d="M863.418182 197.818182c-13.963636 0-23.272727-9.309091-23.272727-23.272727v-186.181819c0-39.563636-25.6-69.818182-69.818182-69.818181H134.981818c-41.890909 0-86.109091 30.254545-86.109091 69.818181V781.963636C48.872727 821.527273 93.090909 849.454545 134.981818 849.454545h635.345455c44.218182 0 69.818182-30.254545 69.818182-69.818181v-325.818182c0-13.963636 9.309091-23.272727 23.272727-23.272727s23.272727 9.309091 23.272727 23.272727V779.636364c0 65.163636-46.545455 116.363636-116.363636 116.363636H134.981818C69.818182 896 2.327273 849.454545 2.327273 781.963636V-11.636364c0-69.818182 69.818182-116.363636 132.654545-116.363636h635.345455c69.818182 0 116.363636 51.2 116.363636 116.363636v186.181819c0 13.963636-11.636364 23.272727-23.272727 23.272727z m153.6 260.654545c-9.309091 9.309091-23.272727 9.309091-32.581818 0L512 6.981818c-9.309091-9.309091-9.309091-23.272727 0-32.581818 9.309091-9.309091 23.272727-9.309091 32.581818 0l472.436364 451.490909c6.981818 6.981818 6.981818 23.272727 0 32.581818zM630.690909 593.454545h-372.363636c-13.963636 0-23.272727-9.309091-23.272728-23.272727s9.309091-23.272727 23.272728-23.272727h372.363636c13.963636 0 23.272727 9.309091 23.272727 23.272727s-11.636364 23.272727-23.272727 23.272727z m0-232.727272h-372.363636c-13.963636 0-23.272727-9.309091-23.272728-23.272728s9.309091-23.272727 23.272728-23.272727h372.363636c13.963636 0 23.272727 9.309091 23.272727 23.272727s-11.636364 23.272727-23.272727 23.272728z"  horiz-adv-x="1024" />

    
    <glyph glyph-name="weibiaoti105" unicode="&#59072;" d="M936.038 750.874c-109.38 118.519-286.737 118.519-396.083 0l-27.93-30.276-27.947 30.276c-109.363 118.519-286.703 118.519-396.066 0-109.38-118.511-109.38-310.647 0-429.158l27.93-30.251 396.083-365.414 396.066 365.414 27.947 30.251c109.362 118.51 109.362 310.647 0 429.158v0z"  horiz-adv-x="1024" />

    
    <glyph glyph-name="guanzhu" unicode="&#59077;" d="M726.109 863.418c-83.782 0-158.255-32.582-214.109-93.091-55.855 60.509-130.327 93.091-214.109 93.091-162.909 0-297.891-144.291-297.891-321.164 0-93.091 37.236-181.527 107.055-246.691l353.745-367.709c13.964-13.964 32.582-23.273 51.2-23.273 18.618 0 37.236 9.309 51.2 23.273l358.4 363.055c65.164 65.164 107.055 158.255 107.055 251.345-4.655 176.873-139.636 321.164-302.545 321.164zM870.4 346.764l-358.4-363.055-358.4 367.709c-51.2 51.2-83.782 116.364-83.782 190.836 0 134.982 102.4 242.036 228.073 242.036 97.745 0 176.873-65.164 214.109-153.6 32.582 88.436 116.364 153.6 214.109 153.6 125.673 0 228.073-107.055 228.073-242.036 0-74.473-32.582-144.291-83.782-195.491z"  horiz-adv-x="1028" />

    
    <glyph glyph-name="tongji" unicode="&#59071;" d="M210.823529 594.823529A90.352941 90.352941 0 0 0 301.176471 504.470588v-542.117647A90.352941 90.352941 0 0 0 210.823529-128h-120.470588A90.352941 90.352941 0 0 0 0-37.64705900000001v542.117647A90.352941 90.352941 0 0 0 90.352941 594.823529h120.470588z m361.411765 301.176471A90.352941 90.352941 0 0 0 662.588235 805.647059v-843.294118A90.352941 90.352941 0 0 0 572.235294-128h-120.470588A90.352941 90.352941 0 0 0 361.411765-37.64705900000001v843.294118A90.352941 90.352941 0 0 0 451.764706 896h120.470588z m361.411765-542.117647a90.352941 90.352941 0 0 0 90.352941-90.352941v-301.176471a90.352941 90.352941 0 0 0-90.352941-90.352941h-120.470588a90.352941 90.352941 0 0 0-90.352942 90.352941v301.176471A90.352941 90.352941 0 0 0 813.176471 353.88235299999997h120.470588z m-722.82353 180.705882h-120.470588a30.117647 30.117647 0 0 1-29.635765-24.69647L60.235294 504.470588v-542.117647a30.117647 30.117647 0 0 1 24.696471-29.635765L90.352941-67.76470600000005h120.470588a30.117647 30.117647 0 0 1 29.635765 24.696471L240.941176-37.64705900000001v542.117647a30.117647 30.117647 0 0 1-30.117647 30.117647z m361.411765 301.176471h-120.470588a30.117647 30.117647 0 0 1-29.635765-24.696471L421.647059 805.647059v-843.294118a30.117647 30.117647 0 0 1 24.69647-29.635765L451.764706-67.76470600000005h120.470588a30.117647 30.117647 0 0 1 29.635765 24.696471L602.352941-37.64705900000001v843.294118a30.117647 30.117647 0 0 1-30.117647 30.117647z m361.411765-542.117647h-120.470588a30.117647 30.117647 0 0 1-29.635765-24.696471L783.058824 263.529412v-301.176471a30.117647 30.117647 0 0 1 24.69647-29.635765l5.421177-0.481882h120.470588a30.117647 30.117647 0 0 1 29.635765 24.696471L963.764706-37.64705900000001v301.176471a30.117647 30.117647 0 0 1-30.117647 30.117647z"  horiz-adv-x="1024" />

    
    <glyph glyph-name="zhuye" unicode="&#59091;" d="M981.929813 371.370667c-9.756444 0-19.626667 3.413333-27.534222 10.211555L538.395591 741.034667l-4.494222 4.124444a31.488 31.488 0 0 1-43.320889 0c-1.251556-1.28-2.816-2.702222-4.494222-4.124444L69.944036 381.582222a42.097778 42.097778 0 0 0-59.676445 4.551111 42.723556 42.723556 0 0 0 4.522667 60.017778L430.761813 805.660444c0.284444 0.284444 1.137778 0.995556 1.422223 1.422223a115.484444 115.484444 0 0 0 159.687111 0l1.422222-1.422223L1009.23648 446.179556c17.777778-15.36 19.768889-42.183111 4.522667-60.046223-8.192-9.671111-20.024889-14.791111-31.857778-14.791111zM769.023147-99.555556h-77.027556c-61.354667 0-111.303111 50.261333-111.303111 112.014223V133.973333a27.192889 27.192889 0 0 1-26.652444 26.851556H477.040924a26.823111 26.823111 0 0 1-26.652444-26.851556v-121.514666c0-61.752889-49.948444-112.014222-111.303111-112.014223H256.283591c-61.354667 0-111.303111 50.261333-111.303111 112.014223v392.248889a42.382222 42.382222 0 0 0 42.325333 42.609777 42.382222 42.382222 0 0 0 42.325334-42.609777v-392.248889c0-14.791111 11.975111-26.823111 26.652444-26.823111h82.801778a26.823111 26.823111 0 0 1 26.652444 26.823111V133.973333c0 61.781333 49.948444 112.014222 111.303111 112.014223h77.027556c61.354667 0 111.303111-50.232889 111.303111-112.014223v-121.514666c0-14.791111 11.975111-26.823111 26.652445-26.823111h77.027555a26.823111 26.823111 0 0 1 26.652445 26.823111v392.248889a42.382222 42.382222 0 0 0 42.325333 42.609777 42.382222 42.382222 0 0 0 42.325333-42.609777v-392.248889c0-61.752889-49.948444-112.014222-111.303111-112.014223z"  horiz-adv-x="1024" />

    
    <glyph glyph-name="fuzhi1" unicode="&#59392;" d="M869.864727 849.454545A107.706182 107.706182 0 0 0 977.454545 741.888v-599.412364A107.706182 107.706182 0 0 0 869.864727 34.909091H721.454545v-8.797091A107.682909 107.682909 0 0 0 613.888-81.454545H154.112A107.682909 107.682909 0 0 0 46.545455 26.112V625.524364A107.682909 107.682909 0 0 0 154.112 733.090909H302.545455v8.797091A107.706182 107.706182 0 0 0 410.135273 849.454545h459.729454zM154.135273-11.636364h459.729454A37.841455 37.841455 0 0 1 651.636364 26.112V625.524364c0 20.805818-16.942545 37.748364-37.748364 37.748363H154.135273C133.329455 663.272727 116.363636 646.330182 116.363636 625.524364v-599.412364C116.363636 5.282909 133.329455-11.636364 154.135273-11.636364zM907.636364 142.475636V741.888C907.636364 762.693818 890.670545 779.636364 869.864727 779.636364H410.135273C389.329455 779.636364 372.363636 762.693818 372.363636 741.888V733.090909h241.524364A107.682909 107.682909 0 0 0 721.454545 625.524364V104.727273h148.410182c20.805818 0 37.771636 16.919273 37.771637 37.748363zM523.636364 523.636364a34.909091 34.909091 0 0 0 0-69.818182h-279.272728a34.909091 34.909091 0 0 0 0 69.818182h279.272728z m0-162.909091a34.909091 34.909091 0 0 0 0-69.818182h-279.272728a34.909091 34.909091 0 0 0 0 69.818182h279.272728z m-93.090909-162.909091a34.909091 34.909091 0 0 0 0-69.818182h-186.181819a34.909091 34.909091 0 0 0 0 69.818182h186.181819z"  horiz-adv-x="1024" />

    
    <glyph glyph-name="projectx" unicode="&#59076;" d="M1001.245241 606.014578H773.689685a45.511111 45.511111 0 0 0-45.511111 45.511111V873.244444H318.578574a56.888889 56.888889 0 0 1-56.888889-56.888888v-170.666667h-22.755555V816.355556a79.644444 79.644444 0 0 0 79.644444 79.644444h432.355556l273.066666-273.066667v-637.155555a79.644444 79.644444 0 0 0-79.644444-79.644445H398.223019v22.755556h546.133333a56.888889 56.888889 0 0 1 56.888889 56.888889V606.014578z m-17.214578 22.755555L750.93413 861.866667v-198.9632a34.133333 34.133333 0 0 1 34.133333-34.133334h198.9632z m-852.184178-626.688c0 24.735289 7.736889 48.776533 21.959111 69.0176V257.14915599999995A251.448889 251.448889 0 0 0 0.000796 489.472c0 91.113244 49.664 175.604622 129.6384 220.478578a31.061333 31.061333 0 0 0 31.175112-0.364089c9.602844-5.688889 15.485156-16.0768 15.485155-27.295289v-104.174933c0-6.8608 5.768533-12.674844 12.572445-12.674845h124.5184c6.803911 0 12.538311 5.802667 12.538311 12.674845v104.174933c0 11.218489 5.893689 21.6064 15.473777 27.295289a31.288889 31.288889 0 0 0 31.175112 0.364089c79.985778-44.896711 129.683911-129.365333 129.683911-220.478578a251.448889 251.448889 0 0 0-153.827556-232.311467v-185.981155a120.0128 120.0128 0 0 0 21.981867-69.074489c0-66.332444-53.498311-120.263111-119.284622-120.263111s-119.284622 53.930667-119.284623 120.263111z m23.415467-2.025244c-0.113778-50.972444 43.190044-96.119467 95.891911-96.745245 47.183644-1.046756 96.6656 40.391111 95.311645 96.745245 1.046756 37.364622-12.686222 56.866133-22.414223 71.042844V268.856889C406.369508 290.622578 484.887552 397.653333 477.867463 485.649067c-0.227556 88.211911-51.780267 170.609778-102.741333 201.636977-6.644622 3.811556-17.1008 9.227378-23.643022 5.279289-6.5536-3.982222-5.006222-15.7696-5.006223-23.620266v-115.325156c0-4.801422-3.925333-8.863289-8.567466-8.863289h-176.583111c-4.642133 0-8.578844 4.061867-8.578845 8.863289l2.503111 115.325156c0 7.850667 0.159289 19.638044-6.382933 23.620266-6.5536 3.982222-22.710044-6.826667-29.343289-10.660977-51.245511-34.4064-95.459556-116.155733-95.516444-196.266667 0-71.600356 58.015289-187.665067 153.349688-208.930133v-205.596445c-9.716622-14.153956-23.426844-34.633956-22.095644-71.042844zM159.289685 429.511111h182.044445a11.377778 11.377778 0 0 0 0-22.755555H159.289685a11.377778 11.377778 0 0 0 0 22.755555z m91.022223-489.244444a45.511111 45.511111 0 1 0 0 91.022222 45.511111 45.511111 0 0 0 0-91.022222z m319.670044 351.687111h301.579378a11.377778 11.377778 0 1 0 0-22.755556H569.981952a11.377778 11.377778 0 0 0 0 22.755556zM557.511908 79.18933300000003h301.579377a11.377778 11.377778 0 1 0 0-22.755555H557.511908a11.377778 11.377778 0 0 0 0 22.755555zM632.35493 486.4h239.2064a11.377778 11.377778 0 1 0 0-22.755556H632.35493a11.377778 11.377778 0 1 0 0 22.755556z"  horiz-adv-x="1024" />

    
    <glyph glyph-name="hostingx2" unicode="&#59075;" d="M773.033088 340.31359999999995l-76.352-122.176a108.8 108.8 0 1 0-154.112-64.064l-129.7024 105.024A108.416 108.416 0 0 0 339.241088 230.39999999999998a108.4288 108.4288 0 0 0-43.6352 9.1008l-112.1664-179.5072a108.8 108.8 0 1 0-20.6336 15.296l110.72 177.1904a108.8 108.8 0 1 0 156.032 26.0352l123.9296-100.352A108.736 108.736 0 0 0 646.441088 230.39999999999998c8.8832 0 17.5232-1.0624 25.792-3.072l78.208 125.1456a108.8 108.8 0 1 0 22.592-12.16zM108.841088-102.39999999999998a83.2 83.2 0 1 1 0 166.4 83.2 83.2 0 0 1 0-166.4z m230.4 358.4a83.2 83.2 0 1 1 0 166.4 83.2 83.2 0 0 1 0-166.4z m307.2-217.6a83.2 83.2 0 1 1 0 166.4 83.2 83.2 0 0 1 0-166.4z m166.4 320a83.2 83.2 0 1 1 0 166.4 83.2 83.2 0 0 1 0-166.4zM294.441088-89.60000000000002v25.6h908.8a51.2 51.2 0 0 1 51.2 51.2V614.4a51.2 51.2 0 0 1-51.2 51.2H769.615488c-24.5248 41.4592-58.5472 93.312-102.0672 155.584A115.2 115.2 0 0 1 573.122688 870.4H89.641088a51.2 51.2 0 0 1-51.2-51.2v-652.8H12.841088V832a64 64 0 0 0 64 64h506.9056a115.2 115.2 0 0 0 94.6688-49.536c42.5216-61.312 76.3904-113.0752 101.6192-155.264H1216.041088a64 64 0 0 0 64-64v-652.8a64 64 0 0 0-64-64H294.441088z"  horiz-adv-x="1280" />

    
    </font>
</defs>
</svg>
